2 сезон

iTunes

MVO

1

2 сезон

iTunes

iTunes

1 сезон

RePack

30

Новинка

ВАЖНО

ИГРА 18+

pack

RePack

MK11
pack

Легкие деньги

RePack

jed

RePack

fifa19

RePack

RDR2

RePack

NEED FOR SPEED™ PAYBACK

4 сезон

9 сезон

Бесстыжие 9 сезон

Все сериалы

все сериалы на PB.wtf

RePack

FAR CRY 5

Anonymous, добрый вечер, мы не успеваем собрать деньги на оплату серверов за декабрь и январь, помогите нам пожалуйста в это трудное время. В качестве благодарности мы отключим Вам всю рекламу на сайте (укажите свой ник в строку Ваше имя)!

×
  
Magnet ссылка

Ангелы и Демоны / Angels & Demons (Рон Ховард) [2009 г., триллер, драма, детектив, BDRip 1080p, HEVC (10bit), Дубляж] [Theatrical cut] pb.wtf

Ангелы и Демоны через торрент pb.wtf

Раздают: 2 [ 0 KB/s ] Качают: 2 [ 0 KB/s ]
Размер: 2.9 GB | Добавлен: 2 года 1 мес. назад | Торрент скачан:173 раза
Скачать  

23-11-2018 13:08 Ангелы и Демоны Скачать торрент  

Ангелы и Демоны / Angels & Demons
Год выпуска: 2009
Страна: США
Жанр: триллер, драма, детектив
Продолжительность: 2:54:37
Перевод: Дубляж
Субтитры: Нет

Режиссер: Рон Ховард

rating

В ролях: Том Хэнкс, Юэн МакГрегор, Айелет Зурер, Стеллан Скарсгард

Описание: Весь мир замер в ожидании свершения древнейшей церемонии — выбора главы католической церкви Папы Римского но в судьбоносное решение вмешивается некая могущественна сила
Доп. информация: -
H.265/HEVC (High Efficiency Video Coding) - это новый стандарт кодирования видео.
- Стандарт H.265/HEVC является логическим продолжением стандарта
H.264/AVC (Advanced Video Coding), и характеризуется более эффективными
алгоритмами сжатия, а также поддержкой высокого разрешения вплоть до 8K UHD
(8192x4320). Первая версия стандарта H.265 была опубликована в начале 2013 года.
- Рипы в фомате HEVC поддерживается не всеми аппаратными проигрывателями.
- Для корректного воспроизведения может потребоваться обновление ПО.
- Владельцам несовместимого железа просьба не беспокоить,
есть альтернативные релизы.
Качество: BDRip 1080p
Формат: MKV
Видео кодек: H.265
Аудио кодек: AC3
Видео: 1920x816, 2349 Kbps
Аудио: AC3, 6 ch, 640 Kbps - Дублированный


Общее
Уникальный идентификатор : 206682950556507046533592020756602933341 (0x9B7DB037841EA183B298AF0A8FEDD05D)
Полное имя : F:\РАЗДАЧИ\Ангелы и Демоны (Театральная версия) HEVC 10bit.mkv
Формат : Matroska
Версия формата : Version 4 / Version 2
Размер файла : 2,90 Гбайт
Продолжительность : 2 ч. 18 м.
Общий поток : 2991 Кбит/сек
Название фильма : Angels and Demons - Blu-ray™
Дата кодирования : UTC 2018-11-19 16:39:22
Программа кодирования : mkvmerge v9.2.0 ('Photograph') 64bit
Библиотека кодирования : libebml v1.3.3 + libmatroska v1.4.4

Видео
Идентификатор : 1
Формат : HEVC
Формат/Информация : High Efficiency Video Coding
Профиль формата : Main 10@L4@Main
Идентификатор кодека : V_MPEGH/ISO/HEVC
Продолжительность : 2 ч. 18 м.
Битрейт : 2349 Кбит/сек
Ширина : 1920 пикселей
Высота : 816 пикселей
Соотношение сторон : 2,35:1
Режим частоты кадров : Постоянный
Частота кадров : 23,976 (24000/1001) кадра/сек
Цветовое пространство : YUV
Субдискретизация насыщенности : 4:2:0
Битовая глубина : 10 бит
Бит/(Пиксели*Кадры) : 0.063
Размер потока : 2,27 Гбайт (79%)
Библиотека кодирования : x265 1.9+88-b6d8e66e7f71:[Windows][GCC 5.3.0][64 bit] 10bit
Настройки программы : wpp / ctu=64 / min-cu-size=8 / max-tu-size=32 / tu-intra-depth=1 / tu-inter-depth=1 / me=1 / subme=2 / merange=57 / no-rect / no-amp / max-merge=2 / temporal-mvp / no-early-skip / rdpenalty=0 / no-tskip / no-tskip-fast / strong-intra-smoothing / no-lossless / no-cu-lossless / no-constrained-intra / no-fast-intra / open-gop / no-temporal-layers / interlace=0 / keyint=250 / min-keyint=23 / scenecut=40 / rc-lookahead=20 / lookahead-slices=0 / bframes=4 / bframe-bias=0 / b-adapt=2 / ref=3 / limit-refs=0 / no-limit-modes / weightp / no-weightb / aq-mode=1 / qg-size=64 / aq-strength=1.00 / cbqpoffs=0 / crqpoffs=0 / rd=3 / psy-rd=0.30 / rdoq-level=0 / psy-rdoq=0.00 / no-rd-refine / signhide / deblock / sao / no-sao-non-deblock / b-pyramid / cutree / no-intra-refresh / rc=2 / pass / bitrate=2349 / qcomp=0.60 / qpmin=0 / qpmax=51 / qpstep=4 / cplxblur=20.0 / qblur=0.5 / ipratio=1.40 / pbratio=1.30
Default : Да
Forced : Нет

Аудио
Идентификатор : 2
Формат : AC-3
Формат/Информация : Audio Coding 3
Идентификатор кодека : A_AC3
Продолжительность : 2 ч. 18 м.
Вид битрейта : Постоянный
Битрейт : 640 Кбит/сек
Каналы : 6 каналов
Расположение каналов : Front: L C R, Side: L R, LFE
Частота : 48,0 КГц
Частота кадров : 31,250 кадров/сек (1536 SPF)
Битовая глубина : 16 бит
Метод сжатия : С потерями
Размер потока : 635 Мбайт (21%)
ServiceKind/String : Complete Main
Default : Да
Forced : Нет

Меню
00:00:00.000 : en:Chapter 01
00:09:30.570 : en:Chapter 02
00:17:32.718 : en:Chapter 03
00:25:41.122 : en:Chapter 04
00:32:22.190 : en:Chapter 05
00:43:36.530 : en:Chapter 06
00:51:52.526 : en:Chapter 07
01:01:11.542 : en:Chapter 08
01:10:47.534 : en:Chapter 09
01:17:13.920 : en:Chapter 10
01:26:21.467 : en:Chapter 11
01:37:39.436 : en:Chapter 12
01:47:41.079 : en:Chapter 13
01:58:02.158 : en:Chapter 14
02:03:03.084 : en:Chapter 15
02:07:28.057 : en:Chapter 16

pb.wtf



Скачать Ангелы и Демоны через торрент https://c.radikal.ru/c17/1811/4a/35fb8fa1ce88.png Скачать фильм Ангелы и Демоны через торрент бесплантно в хорошем качестве Описание: Весь мир замер в ожидании свершения древнейшей церемонии — выбора главы католической церкви Папы Римского но в судьбоносное ... 10 10 7
Info! Золотая раздача, скачанное не засчитывается.
Торрент: Зарегистрирован [2018-11-23 13:08] · скачан: 173 раз
Статус: √ проверено
Размер: 2.9 GB
Как cкачать? Как скачать Ангелы и Демоны через торрент | UTorrent

28-11-2019 20:33  

Отключить всю рекламу на сайте

    Дорогой пользователь! Огромная просьба, поблагодарите релизера, оцените раздачу и оставьте свои комментарий, если Вы скачали Ангелы и Демоны через торрент бесплатно! Внесите свою лепту в развитие PiratBit!
    Комментировать посты могут только пользователи прошедшие не сложную регистрацию
    Показать сообщения:    

    Ангелы и Демоны через торрент
    Скачать бесплатно Ангелы и Демоны
    Ангелы и Демоны скачать торрент
    Ангелы и Демоны смотреть онлайн
    Cкачать фильм Ангелы и Демоны бесплатно
    Ангелы и Демоны скачать торрент в хорошем качестве
    Ангелы и Демоны смотреть онлайн бесплатно в хорошем качестве


    Вы не можете начинать темы
    Вы не можете отвечать на сообщения
    Вы не можете редактировать свои сообщения
    Вы не можете удалять свои сообщения
    Вы не можете голосовать в опросах
    Вы не можете прикреплять файлы к сообщениям
    Вы можете скачивать файлы