Ссылка на приватное зеркало всего за 1$. Внимание количество ограничено!!!

OK

1+1

iTunes

мы

OK

1

WEB-DLRip

Джокер

Пифагор

Ведьмак / The Witcher сериал

iTunes

ПШазам

ОК

Оно 2

iTunes

30
pack

Вам бонус

ВАЖНО

!!Акция!!

Alien_RageХит недели

RePack

Resident Evil 21

ИГРА 18+

pack

RePack

jed

RePack

fifa19

RePack

Assassins Creed: Odyssey

RePack

NEED FOR SPEED™ PAYBACK

4 сезон

9 сезон

Бесстыжие 9 сезон

Все сериалы

все сериалы на PB.wtf

RePack

FAR CRY 5
  

Рождественская история / A Christmas Carol (Дэвид Изатт) [2018 г., Фэнтези, WEB-DLRip, Любительский (многоголосый)(AlphaProject)] pb.wtf

Рождественская история через торрент pb.wtf

Раздают: 1 [ 0 KB/s ]
Размер: 1.28 GB | Добавлен: 1 год 2 мес. назад | Торрент скачан:60 раз
Скачать  

24-11-2018 04:24 Рождественская история Скачать торрент  

Рождественская история / A Christmas Carol
Год выпуска: 2018
Страна: США
Жанр: Фэнтези
Продолжительность: 01:15:00
Перевод: Любительский (многоголосый)(AlphaProject)
Субтитры: Отсутствуют

Режиссер: Дэвид Изатт

rating

В ролях: Бонни Райт, Сарина Тейлор, Ребекка Хансен, Стюарт Бреннан, Сеорас Уоллес, Дэвид Изатт, Фара Ахмед, Виктория Моррисон, Мэгги Борландо, Эланор Миллер

Описание: В маленьком городке Шотландии все ненавидят богача Эбенизера Скруджа, владельца винокурни. Скрудж ненавидит Рождество и накануне одного Рождества его посещают духи праздника и показывают настоящую его суть. Смогут ли повлиять на Скруджа духи Рождества?

Доп. информация: Присутствуют вставки текстовой рекламы

Качество: WEB-DLRip
Формат: AVI
Видео кодек: XviD
Аудио кодек: AC3
Видео: XviD, 720x304, ~2049 Kbps
Аудио#1: AC-3, 2 ch, 384 Kbps
скриншот   скриншот   скриншот   скриншот  

Общее
Полное имя : C:\_\Рождественская история\A Christmas Carol 2018 WEB-DLRip.avi
Формат : AVI
Формат/Информация : Audio Video Interleave
Профиль формата : OpenDML
Размер файла : 1,28 Гбайт
Продолжительность : 1 ч. 15 м.
Общий поток : 2447 Кбит/сек

Видео
Идентификатор : 0
Формат : MPEG-4 Visual
Профиль формата : Advanced Simple@L5
Параметр BVOP формата : 2
Параметр QPel формата : Нет
Параметр GMC формата : Без точки перехода
Параметр матрицы формата : Выборочная
Идентификатор кодека : XVID
Идентификатор кодека/Подсказка : XviD
Продолжительность : 1 ч. 15 м.
Битрейт : 2049 Кбит/сек
Ширина : 720 пикселей
Высота : 304 пикселя
Соотношение сторон : 2,35:1
Частота кадров : 23,976 (24000/1001) кадра/сек
Цветовое пространство : YUV
Субдискретизация насыщенности : 4:2:0
Битовая глубина : 8 бит
Тип развёртки : Прогрессивная
Метод сжатия : С потерями
Бит/(Пиксели*Кадры) : 0.391
Размер потока : 1,07 Гбайт (84%)
Библиотека кодирования : XviD 1.2.1 (UTC 2008-12-04)

Аудио
Идентификатор : 1
Формат : AC-3
Формат/Информация : Audio Coding 3
Расширение режима : CM (complete main)
Параметр Endianness формата : Big
Идентификатор кодека : 2000
Продолжительность : 1 ч. 15 м.
Вид битрейта : Постоянный
Битрейт : 384 Кбит/сек
Каналы : 2 канала
Расположение каналов : Front: L R
Частота : 48,0 КГц
Частота кадров : 31,250 кадров/сек (1536 spf)
Метод сжатия : С потерями
Размер потока : 206 Мбайт (16%)
Выравнивание : Соединение по промежуткам
Продолжительность промежутка : 32 мс. (0,77 видеокадр)

pb.wtf



Скачать Рождественская история через торрент http://pic1.kartinco.top/images/11/tpir5.jpg Скачать фильм Рождественская история через торрент бесплантно в хорошем качестве Описание: В маленьком городке Шотландии все ненавидят богача Эбенизера Скруджа, владельца винокурни. Скрудж ненавидит Рождество и накануне ... 10 10 1
Торрент: Зарегистрирован [2018-11-24 04:24] · скачан: 60 раз
Статус: T временная
Размер: 1.28 GB
Как cкачать? Как скачать Рождественская история через торрент | qTorrent

% Раздел Тема Автор DL S | L
Зарубежные Мультфильмы (BDRip 1080p, 720p, Blu-ray, BD-Remux) [ 19.6 GB ] Рождественская история / A Christmas Carol [2009 мультфильм BDRemux 1080p] Dub + AVO - KORSAR kisa1980 Скачать
2 | 0
Зарубежные Мультфильмы (BDRip 1080p, 720p, Blu-ray, BD-Remux) [ 8.48 GB ] Рождественская история / A Christmas Carol [2009 мультфильм BDRip 1080р] DUB / от R.G. HD-Films -=DANTE=- Скачать
1 | 1
Мультфильмы (48-60 fps) [ 3.34 GB ] Рождественская история / A Christmas Carol [2009 мультфильм BDRip-AVC 60fps Dub Original] от R.G. HD-Films Tiberiumsun69 Скачать
54 | 0
Иностранные мультфильмы [ 1.36 GB ] Рождественская история / A Christmas Carol [2009 мультфильм HDRip][ лицензия ] SD Скачать
1 | 0
Иностранные мультфильмы [ 1.46 GB ] Рождественская история / A Christmas Carol [2009 мультфильм / BDRip-AVC] DUB akcent Скачать
1 | 1
3D Мультфильмы [ 6.29 GB ] Рождественская история 3D / A Christmas Carol 3D [2009 мультфильм BDRip Anaglyph red'cyan] serega768 Скачать
1 | 0
3D Мультфильмы [ 3.64 GB ] Рождественская история 3Д / A Christmas Carol 3D [2009 мультфильм BDRip] / OverUnder / Вертикальная стереопара Sудья Скачать
1 | 0

28-11-2019 20:33  

Отключить всю рекламу на сайте

    Дорогой пользователь! Огромная просьба, поблагодарите релизера, оцените раздачу и оставьте свои комментарий, если Вы скачали Рождественская история через торрент бесплатно! Внесите свою лепту в развитие PiratBit!
    Комментировать посты могут только пользователи прошедшие не сложную регистрацию
    Показать сообщения:    

    Рождественская история через торрент
    Скачать бесплатно Рождественская история
    Рождественская история скачать торрент
    Рождественская история смотреть онлайн
    Cкачать фильм Рождественская история бесплатно
    Рождественская история скачать торрент в хорошем качестве
    Рождественская история смотреть онлайн бесплатно в хорошем качестве


    Вы не можете начинать темы
    Вы не можете отвечать на сообщения
    Вы не можете редактировать свои сообщения
    Вы не можете удалять свои сообщения
    Вы не можете голосовать в опросах
    Вы не можете прикреплять файлы к сообщениям
    Вы можете скачивать файлы