Ссылка на приватное зеркало всего за 1$. Внимание количество ограничено!!!

OK

1+1

iTunes

мы

OK

1

WEB-DLRip

Джокер

Пифагор

Ведьмак / The Witcher сериал

iTunes

ПШазам

ОК

Оно 2

iTunes

30
pack

Вам бонус

ВАЖНО

!!Акция!!

Alien_RageХит недели

RePack

Resident Evil 21

ИГРА 18+

pack

RePack

jed

RePack

fifa19

RePack

Assassins Creed: Odyssey

RePack

NEED FOR SPEED™ PAYBACK

4 сезон

9 сезон

Бесстыжие 9 сезон

Все сериалы

все сериалы на PB.wtf

RePack

FAR CRY 5
  

Знатные времена / Herrliche Zeiten (Оскар Рёлер) [2018 г., Драма, комедия, HDRip, Любительский (многоголосый) (Синема УС)] pb.wtf

Знатные времена через торрент pb.wtf

Размер: 1.41 GB | Добавлен: 1 год 2 мес. назад | Торрент скачан:156 раз
Скачать  

24-11-2018 05:23 Знатные времена Скачать торрент  

Знатные времена / Herrliche Zeiten
Год выпуска: 2018
Страна: Германия
Жанр: Драма, комедия
Продолжительность: 01:50:09
Перевод: Любительский (многоголосый) (Синема УС)
Субтитры: Отсутствуют

Режиссер: Оскар Рёлер

rating

В ролях: Оливер Мазуччи, Катя Риман, Самуэль Финци, Лизе Ферин, Аслан Аслан, Кемаль Айдын, Александр Байер, Маргарита Бройх, Казим Демирбас, Ясин Эль-Харрук

Описание: Комедийно-драматический фильм, в котором рассказывается история о богатой паре в поисках новой экономки. Как шутка, они пишут в объявлении, что ищут «рабов», что принимает неожиданные последствия.

Доп. информация: Присутствуют вставки текстовой рекламы

Качество: HDRip
Формат: AVI
Видео кодек: XviD
Аудио кодек: AC3
Видео: XviD, 720x304, ~1568 Kbps
Аудио#1: AC-3, 2 ch, 256 Kbps
скриншот   скриншот   скриншот   скриншот  

Общее
Полное имя : C:\_\Знатные времена\Herrliche Zeiten 2018 HDRip.avi
Формат : AVI
Формат/Информация : Audio Video Interleave
Профиль формата : OpenDML
Размер файла : 1,41 Гбайт
Продолжительность : 1 ч. 50 м.
Общий поток : 1836 Кбит/сек

Видео
Идентификатор : 0
Формат : MPEG-4 Visual
Профиль формата : Advanced Simple@L5
Параметр BVOP формата : 2
Параметр QPel формата : Нет
Параметр GMC формата : Без точки перехода
Параметр матрицы формата : Выборочная
Идентификатор кодека : XVID
Идентификатор кодека/Подсказка : XviD
Продолжительность : 1 ч. 50 м.
Битрейт : 1568 Кбит/сек
Ширина : 720 пикселей
Высота : 304 пикселя
Соотношение сторон : 2,35:1
Частота кадров : 23,976 (24000/1001) кадра/сек
Цветовое пространство : YUV
Субдискретизация насыщенности : 4:2:0
Битовая глубина : 8 бит
Тип развёртки : Прогрессивная
Метод сжатия : С потерями
Бит/(Пиксели*Кадры) : 0.299
Размер потока : 1,21 Гбайт (85%)
Библиотека кодирования : XviD 1.2.1 (UTC 2008-12-04)

Аудио
Идентификатор : 1
Формат : AC-3
Формат/Информация : Audio Coding 3
Расширение режима : CM (complete main)
Параметр Endianness формата : Big
Идентификатор кодека : 2000
Продолжительность : 1 ч. 50 м.
Вид битрейта : Постоянный
Битрейт : 256 Кбит/сек
Каналы : 2 канала
Расположение каналов : Front: L R
Частота : 48,0 КГц
Частота кадров : 31,250 кадров/сек (1536 spf)
Метод сжатия : С потерями
Размер потока : 202 Мбайт (14%)
Выравнивание : Соединение по промежуткам
Продолжительность промежутка : 32 мс. (0,77 видеокадр)

pb.wtf



Скачать Знатные времена через торрент http://pic1.kartinco.top/images/11/enhof.jpg Скачать фильм Знатные времена через торрент бесплантно в хорошем качестве Описание: Комедийно-драматический фильм, в котором рассказывается история о богатой паре в поисках новой экономки. Как шутка, они пишут в ... 10 10 3
Торрент: Зарегистрирован [2018-11-24 05:23] · скачан: 156 раз
Статус: T временная
Размер: 1.41 GB
Как cкачать? Как скачать Знатные времена через торрент | qTorrent

28-11-2019 20:33  

Отключить всю рекламу на сайте

    Дорогой пользователь! Огромная просьба, поблагодарите релизера, оцените раздачу и оставьте свои комментарий, если Вы скачали Знатные времена через торрент бесплатно! Внесите свою лепту в развитие PiratBit!
    Комментировать посты могут только пользователи прошедшие не сложную регистрацию
    Показать сообщения:    

    Знатные времена через торрент
    Скачать бесплатно Знатные времена
    Знатные времена скачать торрент
    Знатные времена смотреть онлайн
    Cкачать фильм Знатные времена бесплатно
    Знатные времена скачать торрент в хорошем качестве
    Знатные времена смотреть онлайн бесплатно в хорошем качестве


    Вы не можете начинать темы
    Вы не можете отвечать на сообщения
    Вы не можете редактировать свои сообщения
    Вы не можете удалять свои сообщения
    Вы не можете голосовать в опросах
    Вы не можете прикреплять файлы к сообщениям
    Вы можете скачивать файлы