ВНИМАНИЕ!!! Роскомнадзор заблокировал pb.wtf в РФ навсегда, просьба установить наш плагин который откроет доступ из РФ, для Хром, Ябраузер, Опера -> Mozilla FireFox и перейти на pb.wtf. о плагине

Лицензия

30

MVO

Как приручить дракона 3

11 сезон

1

1 сезон

гринч

iTunes

Стекло

iTunes

Клаустрофобы

8 сезон

Игра престолов

iTunes

Ральф против интернета Хит недели

ИГРА 18+

pack

ВАЖНО

!!Акция!!

Alien_RageХит недели

RePack

Resident Evil 21
pack

RePack

Metro:Exodus

!!Акция!!

Alien_Rage

RePack

fifa19

RePack

Assassins Creed: Odyssey

RePack

NEED FOR SPEED™ PAYBACK

3 сезон

9 сезон

Бесстыжие 9 сезон

Все сериалы

все сериалы на PB.wtf

RePack

FAR CRY 5
Ребята, критически не успеваем дособрать 3200р. для оплаты серверов за Март (всвязи с блокировками трафик упал в 3 раза), 1-2р., выручайте.
  

Побег из тюрьмы Даннемора / Escape at Dannemora / Сезон: 1 / Серии 1-6 из 7 (Бен Стиллер) [2018, драма, WEBRip 1080p] [MVO] (NewStudio) pb.wtf

Побег из тюрьмы Даннемора через торрент pb.wtf

Размер: 22.19 GB | Добавлен: 3 мес. 23 д. назад | Торрент скачан:12 раз
Скачать  

24-11-2018 07:52 Побег из тюрьмы Даннемора Скачать торрент  

Побег из тюрьмы Даннемора / Escape at Dannemora
Информация о фильме

Год выпуска: 2018
Жанр: драма
Страна: США
Продолжительность: 1 x ~ 01:04:00
Перевод: Профессиональный (многоголосый закадровый) NewStudio
Субтитры: Английские

Режиссер: Бен Стиллер

В ролях: Бенисио Дель Торо, Патриша Аркетт, Пол Дано, Бонни Хант, Эрик Ланж, Дэвид Морс, James E. Facteau, Daniel Johnson, Katrina Lee, Gregory Blanch

О фильме:
«Побег из Даннеморы» снят по мотивам реальных событий и рассказывает историю дерзкого побега двух заключенных из тюрьмы строгого режима, расположенной в округе Клинтон, штат Нью-Йорк. В 2015 году Ричарду Мэтту и Дэвиду Суиту удалось оказаться на свободе благодаря помощи замужней портнихи Тилли Митчелл, работавшей в тюремной швейной мастерской и имевшей интимную связь с обоими преступниками.

ratingскриншот  

Раздача от -- Wanterlude

Файл
Кодек: x264 (AVC)
Качество: WEBRip 1080p
Видео: MPEG-4 AVC, ~ 10 Мбит/с, 1920x1080
Звук 1: Русский (AC3, 6 ch, 384 Кбит/с)
Звук 2: английский (E-AC3, 6 ch, 640 Кбит/с)

Цитата:

Без рекламы благодаря:
▪ Wanterlude: 1 серия
Озвучка:
▪ Профессиональная многоголосая (NewStudio)
Субтитры:
▪ Русские (Forced)
▪ Английские (Full(SDH))

Дополнительная информация:
▪ Видеоряд: Escape.at.Dannemora.S01.1080p.AMZN.WEBRip.DDP5.1.x264-NTb
▪ Forced субтитры от NewStudio

скриншот  скриншот  скриншот  
General
Unique ID : 75360915425122680063771147348090245024 (0x38B1FBFF5E65E3F81166C09995034FA0)
Complete name : E:\Escape.at.Dannemora.S01.1080p.NewStudio.(Wanterlude)\Escape.at.Dannemora.S01E01.Girl.from.the.North.Country.1080p.NewStudio.(Wanterlude).mkv
Format : Matroska
Format version : Version 4 / Version 2
File size : 4.60 GiB
Duration : 1 h 3 min
Overall bit rate : 10.4 Mb/s
Movie name : Escape at Dannemora | Ep 01 | NewStudio
Encoded date : UTC 2018-11-24 06:49:01
Writing application : mkvmerge v28.1.0 ('Morning Child') 64-bit
Writing library : libebml v1.3.6 + libmatroska v1.4.9

Video
ID : 1
Format : AVC
Format/Info : Advanced Video Codec
Format profile : High@L4
Format settings : CABAC / 4 Ref Frames
Format settings, CABAC : Yes
Format settings, RefFrames : 4 frames
Codec ID : V_MPEG4/ISO/AVC
Duration : 1 h 3 min
Bit rate : 9 122 kb/s
Width : 1 920 pixels
Height : 1 080 pixels
Display aspect ratio : 16:9
Frame rate mode : Constant
Frame rate : 23.976 (24000/1001) FPS
Color space : YUV
Chroma subsampling : 4:2:0
Bit depth : 8 bits
Scan type : Progressive
Bits/(Pixel*Frame) : 0.183
Stream size : 4.05 GiB (88%)
Title : Escape at Dannemora | Ep 01 | NewStudio
Language : English
Default : Yes
Forced : No
Color range : Limited
Color primaries : BT.709
Transfer characteristics : BT.709
Matrix coefficients : BT.709

Audio #1
ID : 2
Format : AC-3
Format/Info : Audio Coding 3
Format settings, Endianness : Big
Codec ID : A_AC3
Duration : 1 h 3 min
Bit rate mode : Constant
Bit rate : 384 kb/s
Channel(s) : 6 channels
Channel positions : Front: L C R, Side: L R, LFE
Sampling rate : 48.0 kHz
Frame rate : 31.250 FPS (1536 SPF)
Bit depth : 16 bits
Compression mode : Lossy
Stream size : 175 MiB (4%)
Title : NewStudio | Wanterlude
Language : Russian
Service kind : Complete Main
Default : Yes
Forced : Yes

Audio #2
ID : 3
Format : E-AC-3
Format/Info : Enhanced Audio Coding 3
Format settings, Endianness : Big
Codec ID : A_EAC3
Duration : 1 h 3 min
Bit rate mode : Constant
Bit rate : 640 kb/s
Channel(s) : 6 channels
Channel positions : Front: L C R, Side: L R, LFE
Sampling rate : 48.0 kHz
Frame rate : 187.500 FPS (256 SPF)
Compression mode : Lossy
Delay relative to video : 7 ms
Stream size : 291 MiB (6%)
Language : English
Service kind : Complete Main
Default : No
Forced : No

Text #1
ID : 4
Format : ASS
Codec ID : S_TEXT/ASS
Codec ID/Info : Advanced Sub Station Alpha
Compression mode : Lossless
Title : Forced
Language : Russian
Default : Yes
Forced : Yes

Text #2
ID : 5
Format : UTF-8
Codec ID : S_TEXT/UTF8
Codec ID/Info : UTF-8 Plain Text
Title : SDH
Language : English
Default : No
Forced : No
Внимание! Раздача ведётся путём добавления новых серий; при каждом добавлении создаётся новый торрент. Чтобы начать докачку новой серии, пользователям необходимо сделать следующее:
(1) остановить скачивание,
(2) удалить старый торрент у себя из клиента (старые серии удалять не надо),
(3) скачать новый торрент и запустить его у себя в клиенте вместо старого, при этом указать клиенту путь в старую папку куда и должно происходить скачивание новых серий.
Ваш клиент при этом должен произвести хеширование (проверку) старой папки (если не производит сам - помогите ему сделать это), и будет докачивать только те серии которых у вас ещё нет. Старые серии при этом не удаляются, а продолжают раздаваться!
Eсли вы уже удалили старые серии, то предотвратить повторную закачку старых серий можно, отжав галочку в соответствующих местах при запуске нового торрента. По возможности, желательно не удалять старые серии как можно дольше чтобы релизёр не столько продолжал раздавать старые серии, а смог сконцентрироваться на новых.
pb.wtf



Скачать Побег из тюрьмы Даннемора через торрент https://i106.fastpic.ru/big/2018/1119/54/9b91d7c5486a9fe5ff687fd36d6a4a54.jpg Скачать фильм Побег из тюрьмы Даннемора через торрент бесплантно в хорошем качестве О фильме:«Побег из Даннеморы» снят по мотивам реальных событий и рассказывает историю дерзкого побега двух заключенных из тюрьмы строгого ... 9.8 10 4
Торрент: Зарегистрирован [2019-01-01 13:26] · скачан: 12 раз
Статус: √ проверено
Размер: 22.19 GB
Как cкачать? Как скачать Побег из тюрьмы Даннемора через торрент | qTorrent


>> Регистрируемся здесь <<






Отзывы и комментарии о схеме читаем и пишем здесь: ---> Отзывы и комментарии о схеме

Новые благодарочки в телеграм довольных пользователей:
скриншот   скриншот   скриншот   скриншот   скриншот
    Дорогой пользователь! Огромная просьба, поблагодарите релизера, оцените раздачу и оставьте свои комментарий, если Вы скачали Побег из тюрьмы Даннемора через торрент бесплатно! Внесите свою лепту в развитие PiratBit!
    Комментировать посты могут только пользователи прошедшие не сложную регистрацию
    Показать сообщения:    

    Побег из тюрьмы Даннемора через торрент
    Скачать бесплатно Побег из тюрьмы Даннемора
    Побег из тюрьмы Даннемора скачать торрент
    Побег из тюрьмы Даннемора смотреть онлайн
    Cкачать фильм Побег из тюрьмы Даннемора бесплатно
    Побег из тюрьмы Даннемора скачать торрент в хорошем качестве
    Побег из тюрьмы Даннемора смотреть онлайн бесплатно в хорошем качестве


    Вы не можете начинать темы
    Вы не можете отвечать на сообщения
    Вы не можете редактировать свои сообщения
    Вы не можете удалять свои сообщения
    Вы не можете голосовать в опросах
    Вы не можете прикреплять файлы к сообщениям
    Вы можете скачивать файлы