>

7.4

iTunes

7.4

2 сезон

9.4

1 сезон

1

7.4

2 сезон

7.2

iTunes

6.0

MVO

13

6.1

iTunes

8.3

Пиратка

30

ULTIMATE

pack

9.9

Лицензия

ВАЖНО

ИГРА 18+

pack

7.3

RePack

MK11

7.7

RePack

jed

7.8

RePack

fifa19

8.5

RePack

RDR2

RePack

NEED FOR SPEED™ PAYBACK

1 сезон

9 сезон

Бесстыжие 9 сезон

Все сериалы

все сериалы на PB.wtf

RePack

FAR CRY 5

Anonymous, добрый вечер, мы катастрофически не успеваем собрать деньги на оплату серверов, помогите нам пожалуйста 5,10,15р., для нас важна любая помощь . В качестве благодарности мы отключим Вам всю рекламу на сайте (укажите свой ник в строку Ваше имя)!

×
  
Magnet ссылка

Бумеранг! / Boomerang! (Элиа Казан) [1947, фильм-нуар, драма, мелодрама, криминал, BDRip 720p by msltel] AVO pb.wtf

Бумеранг! через торрент pb.wtf

Размер: 3.82 GB | Добавлен: 3 года 1 мес. назад | Торрент скачан:3 раза
Смотреть онлайн Бумеранг! | Скачать    Ребята, помогите собрать деньги на оплату серверов!!!

24-11-2018 09:10 Бумеранг! Скачать торрент  

Название: Бумеранг!
Оригинальное название: Boomerang!
Год выпуска: 1947
Страна: США
Жанр: фильм-нуар, драма, мелодрама, криминал
Продолжительность: 01:28:02
Перевод: авторский

Режиссер: Элиа Казан
В ролях: Дэна Эндрюс, Джейн Уайатт, Ли Дж. Кобб, Артур Кеннеди, Сэм Левин, Роберт Кит, Тэйлор Холмс, Эд Бегли ст., Карл Молден, Кэра Уильямс, Бэрри Келли, Филип Кулидж, Артур Миллер

О фильме: После убийства священника был спешно арестован невинный безработный бродяга, но прокурор принимает решение докопаться до истины... Сценарий фильма основан на статье Фалтона Орслера в журнале «Ридерс дайджест», рассказывающей реальную историю убийства в 1924 году священника в городке Бриджпорт, штат Коннектикут.



Качество: BDRip 720p
Формат: MKV
Видео: MPEG-4 AVC, 5827 Кбит/с, 986x720, 23.976 кадр/с
Аудио 1: русский, AC3, 192 kbps, 2 ch, 48 kHz [авторский, Антон Алексеев]
Аудио 2: английский, AC3, 192 kbps, 2 ch, 48 kHz [оригинал]
Субтитры 1: русские
Субтитры 2: английские
Главы/чаптеры
Общее
Уникальный идентификатор : 236731169580827821024951447663177612482 (0xB218C3CBAC47D428A088DA9D7593BCC2)
Полное имя : D:\Video\Boomerang.1947.BDRip 720p by msltel.mkv
Формат : Matroska
Версия формата : Version 4
Размер файла : 3,82 Гбайт
Продолжительность : 1 ч. 28 м.
Общий поток : 6214 Кбит/сек
Название фильма : Rip by msltel
Дата кодирования : UTC 2018-11-23 07:57:05
Программа кодирования : mkvmerge v8.2.0 ('World of Adventure') 64bit
Библиотека кодирования : libebml v1.3.1 + libmatroska v1.4.2

Видео
Идентификатор : 1
Формат : AVC
Формат/Информация : Advanced Video Codec
Профиль формата : High@L4.1
Настройки формата : CABAC / 9 Ref Frames
Параметр CABAC формата : Да
Параметр RefFrames формата : 9 кадров
Идентификатор кодека : V_MPEG4/ISO/AVC
Продолжительность : 1 ч. 28 м.
Битрейт : 5827 Кбит/сек
Ширина : 986 пикселей
Высота : 720 пикселей
Соотношение сторон : 4:3
Режим частоты кадров : Постоянный
Частота кадров : 23,976 (24000/1001) кадра/сек
Цветовое пространство : YUV
Субдискретизация насыщенности : 4:2:0
Битовая глубина : 8 бит
Тип развёртки : Прогрессивная
Бит/(Пиксели*Кадры) : 0.342
Размер потока : 3,58 Гбайт (94%)
Библиотека кодирования : x264 core 155 r2901 7d0ff22
Настройки программы : cabac=1 / ref=9 / deblock=1:-3:-2 / analyse=0x3:0x113 / me=umh / subme=11 / psy=1 / psy_rd=1.00:0.15 / mixed_ref=1 / me_range=32 / chroma_me=1 / trellis=2 / 8x8dct=1 / cqm=0 / deadzone=21,11 / fast_pskip=0 / chroma_qp_offset=-3 / threads=6 / lookahead_threads=1 / sliced_threads=0 / nr=0 / decimate=1 / interlaced=0 / bluray_compat=0 / constrained_intra=0 / bframes=14 / b_pyramid=2 / b_adapt=2 / b_bias=0 / direct=1 / weightb=1 / open_gop=0 / weightp=2 / keyint=230 / keyint_min=23 / scenecut=40 / intra_refresh=0 / rc_lookahead=40 / rc=crf / mbtree=1 / crf=17.0 / qcomp=0.60 / qpmin=0 / qpmax=69 / qpstep=4 / vbv_maxrate=62500 / vbv_bufsize=78125 / crf_max=0.0 / nal_hrd=none / filler=0 / ip_ratio=1.40 / aq=1:1.00
Язык : English
Default : Да
Forced : Нет

Аудио #1
Идентификатор : 2
Формат : AC-3
Формат/Информация : Audio Coding 3
Коммерческое название : Dolby Digital
Идентификатор кодека : A_AC3
Продолжительность : 1 ч. 28 м.
Вид битрейта : Постоянный
Битрейт : 192 Кбит/сек
Каналы : 2 канала
Channel layout : L R
Частота : 48,0 КГц
Частота кадров : 31,250 кадров/сек (1536 SPF)
Битовая глубина : 16 бит
Метод сжатия : С потерями
Размер потока : 121 Мбайт (3%)
Заголовок : Антон Алексеев
Язык : Russian
ServiceKind/String : Complete Main
Default : Да
Forced : Нет

Аудио #2
Идентификатор : 3
Формат : AC-3
Формат/Информация : Audio Coding 3
Коммерческое название : Dolby Digital
Идентификатор кодека : A_AC3
Продолжительность : 1 ч. 28 м.
Вид битрейта : Постоянный
Битрейт : 192 Кбит/сек
Каналы : 2 канала
Channel layout : L R
Частота : 48,0 КГц
Частота кадров : 31,250 кадров/сек (1536 SPF)
Битовая глубина : 16 бит
Метод сжатия : С потерями
Размер потока : 121 Мбайт (3%)
Заголовок : original
Язык : English
ServiceKind/String : Complete Main
Default : Нет
Forced : Нет

Текст #1
Идентификатор : 4
Формат : UTF-8
Идентификатор кодека : S_TEXT/UTF8
Идентификатор кодека/Информация : UTF-8 Plain Text
Продолжительность : 1 ч. 27 м.
Битрейт : 174 бит/сек
ElementCount : 1390
Размер потока : 112 Кбайт (0%)
Заголовок : русские
Язык : Russian
Default : Нет
Forced : Нет

Текст #2
Идентификатор : 5
Формат : UTF-8
Идентификатор кодека : S_TEXT/UTF8
Идентификатор кодека/Информация : UTF-8 Plain Text
Продолжительность : 1 ч. 26 м.
Битрейт : 102 бит/сек
ElementCount : 1764
Размер потока : 65,3 Кбайт (0%)
Заголовок : английские
Язык : English
Default : Нет
Forced : Нет

Меню
00:00:00.000 : :Chapter 1
00:01:20.497 : :Chapter 2
00:04:35.566 : :Chapter 3
00:08:28.132 : :Chapter 4
00:12:53.773 : :Chapter 5
00:14:55.185 : :Chapter 6
00:16:55.848 : :Chapter 7
00:21:35.711 : :Chapter 8
00:24:15.871 : :Chapter 9
00:28:05.683 : :Chapter 10
00:33:36.639 : :Chapter 11
00:39:20.775 : :Chapter 12
00:45:02.324 : :Chapter 13
00:48:54.765 : :Chapter 14
00:54:30.392 : :Chapter 15
00:58:54.948 : :Chapter 16
01:04:41.127 : :Chapter 17
01:07:30.045 : :Chapter 18
01:11:38.377 : :Chapter 19
01:13:31.281 : :Chapter 20
01:17:30.228 : :Chapter 21
01:19:34.853 : :Chapter 22
01:25:04.933 : :Chapter 23
01:26:49.203 : :Chapter 24
01:28:02.360 : :Chapter 25
pb.wtf



Скачать Бумеранг! через торрент https://d.radikal.ru/d30/1811/6c/a504782a382f.jpg Скачать, смотреть онлайн Бумеранг! бесплантно в хорошем качестве О фильме: После убийства священника был спешно арестован невинный безработный бродяга, но прокурор принимает решение докопаться до ... 10 10 1
Info! Золотая раздача, скачанное не засчитывается.
Торрент: Зарегистрирован [2018-11-24 09:10] · скачан: 3 раз
Статус: √ проверено
Размер: 3.82 GB
Как cкачать? Как скачать Бумеранг! через торрент | UTorrent

% Раздел Тема Автор DL S | L
Фильмы с авторской озвучкой [ 10.25 GB ] Бумеранг! / Boomerang! [1947 фильм-нуар BDRip 1080p by msltel] AVO msltel Скачать
1 | 0

28-11-2019 20:33  

Отключить всю рекламу на сайте

    Дорогой пользователь! Огромная просьба, поблагодарите релизера, оцените раздачу и оставьте свои комментарий, если Вы скачали Бумеранг! через торрент бесплатно!
    Комментировать посты могут только пользователи прошедшие не сложную регистрацию
    Показать сообщения:    

    Бумеранг! через торрент
    Скачать бесплатно Бумеранг!
    Бумеранг! скачать торрент
    Бумеранг! смотреть онлайн
    Cкачать фильм Бумеранг! бесплатно
    Бумеранг! скачать торрент в хорошем качестве
    Бумеранг! смотреть онлайн бесплатно в хорошем качестве


    Вы не можете начинать темы
    Вы не можете отвечать на сообщения
    Вы не можете редактировать свои сообщения
    Вы не можете удалять свои сообщения
    Вы не можете голосовать в опросах
    Вы не можете прикреплять файлы к сообщениям
    Вы можете скачивать файлы