Всегда рабочее зеркало без VPN и Proxy просто перед .vidak.icu напиши любое слово или цифру, Пример http://1nws.vidak.icu

MVO

MVO

1 сезон

1

1 сезон

iTunes

1 сезон

13

1 сезон

Deluxe

pack

Рекомендуем

Repack

30

ВАЖНО

RePack

MK11

RePack

jed

RePack

fifa19

RePack

RDR2

RePack

NEED FOR SPEED™ PAYBACK

Кинопоиск HD

6 сезон

 Острые козырьки 6 сезон

Все сериалы

все сериалы на PB.wtf

RePack

FAR CRY 5
  
Magnet ссылка

Миссия невыполнима: Последствия / Mission: Impossible - Fallout (Кристофер МакКуорри) [2018, боевик, триллер, приключения, UHD BDRemux 2160p] [IMAX Edition] [HDR] DUB (Rus, Ukr) [iTunes] pb.wtf

Миссия невыполнима: Последствия через торрент pb.wtf

Раздают: 1 [ 0 KB/s ]
Размер: 70.71 GB | Добавлен: 3 года 8 мес. назад | Торрент скачан:140 раз
Смотреть онлайн Миссия невыполнима: Последствия | Скачать    Ребята, помогите собрать деньги на оплату серверов!!!

24-11-2018 19:21 Миссия невыполнима: Последствия Скачать торрент  

Миссия невыполнима: Последствия / Mission: Impossible - Fallout
««Когда миссия не оставляет выбора»»

Год выпуска: 2018
Страна: США, Китай, Франция, Норвегия
Жанр: боевик, триллер, приключения

Продолжительность: 02:27:25
Перевод: Дублированный | iTunes
Субтитры: Русские (Forced, full), украинские (Forced, full), английские (SDH, SDH Colored)
Режиссер: Кристофер МакКуорри
В ролях:

Том Круз (Ethan Hunt), Генри Кавилл (August Walker), Винг Реймз (Luther Stickell), Саймон Пегг (Benji Dunn), Ребекка Фергюсон (Ilsa Faust), Шон Харрис (Solomon Lane), Анджела Бассетт (Erika Sloane), Ванесса Кирби (The White Widow), Мишель Монахэн (Julia), Уэс Бентли (Erik), Фредерик Шмидт (Zola), Алек Болдуин (Alan Hunley)
Описание:
Итан Хант и его команда, а также недавно примкнувшие к ним союзники, вынуждены действовать наперегонки со временем, когда новая миссия идет не по плану.
Рейтинг:
rating
MPAA: PG-13 - Детям до 13 лет просмотр не желателен
Качество: UHD BDRemux 2160p | IMAX Edition
Формат: MKV
Видео: HEVC HDR, 61.5 Mбит/с, 3840x2160, 23.976 кадр/с
Аудио #1: AC-3, 48.0 kHz, 6 ch, 384 kb/s, CBR (Russian) | Дублированный | iTunes
Аудио #2: AC-3, 48.0 kHz, 2 ch, 160 kb/s, CBR (Ukrainian) | Дублированный | iTunes
Аудио #3: TrueHD+Atmos / TrueHD, / 48.0 kHz, Object Based / 8 ch, 5 026 kb/s, VBR (English) | Original
Аудио #4: AC-3, 48.0 kHz, 6 ch, 640 kb/s, CBR (English) | Original
Аудио #5: AC-3, 48.0 kHz, 2 ch, 224 kb/s, CBR (English) | Commentary
Аудио #6: AC-3, 48.0 kHz, 2 ch, 224 kb/s, CBR (English) | Commentary
Аудио #7: AC-3, 48.0 kHz, 2 ch, 224 kb/s, CBR (English) | Commentary
Навигация по главам: есть
Общее
Уникальный идентификатор : 305867758326438860237333031548352367065 (0xE61BFCCB618D209D18AA4820019E89D9)
Полное имя : Mission.Impossible.Fallout.2018.2160p.UHD.BDRemux.HDR.HEVC.IVA(RUS.UKR.ENG).ExKinoRay.mkv
Формат : Matroska
Версия формата : Version 4
Размер файла : 70,7 Гбайт
Продолжительность : 2 ч. 27 м.
Режим общего битрейта : Переменный
Общий поток : 68,7 Мбит/сек
Название фильма : Миссия невыполнима: Последствия / Mission: Impossible - Fallout ( 2018 )
Дата кодирования : UTC 2018-11-24 16:50:05
Программа кодирования : mkvmerge v28.2.0 ('The Awakening') 64-bit
Библиотека кодирования : libebml v1.3.6 + libmatroska v1.4.9
Обложка : Yes
Attachments : cover

Видео
Идентификатор : 1
Формат : HEVC
Формат/Информация : High Efficiency Video Coding
Коммерческое название : HDR10
Профиль формата : Main [email protected]@High
Идентификатор кодека : V_MPEGH/ISO/HEVC
Продолжительность : 2 ч. 27 м.
Битрейт : 61,5 Мбит/сек
Ширина : 3840 пикселей
Высота : 2160 пикселей
Соотношение сторон : 16:9
Режим частоты кадров : Постоянный
Частота кадров : 23,976 (24000/1001) кадра/сек
Цветовое пространство : YUV
Субдискретизация насыщенности : 4:2:0 (Type 2)
Битовая глубина : 10 бит
Бит/(Пиксели*Кадры) : 0.309
Размер потока : 63,3 Гбайт (90%)
Заголовок : Mission.Impossible.Fallout.2018.2160p.UHD.BluRay.HDR.HEVC
Язык : English
Default : Да
Forced : Нет
Цветовой диапазон : Limited
Основные цвета : BT.2020
Характеристики трансфера : PQ
Коэффициенты матрицы : BT.2020 non-constant
MasteringDisplay_ColorPrimaries : Display P3
MasteringDisplay_Luminance : min: 0.0001 cd/m2, max: 1000 cd/m2

Аудио #1
Идентификатор : 2
Формат : AC-3
Формат/Информация : Audio Coding 3
Коммерческое название : Dolby Digital
Идентификатор кодека : A_AC3
Продолжительность : 2 ч. 27 м.
Вид битрейта : Постоянный
Битрейт : 384 Кбит/сек
Каналы : 6 каналов
Channel layout : L R C LFE Ls Rs
Частота : 48,0 КГц
Частота кадров : 31,250 кадров/сек (1536 SPF)
Битовая глубина : 16 бит
Метод сжатия : С потерями
Размер потока : 405 Мбайт (1%)
Заголовок : iTunes
Язык : Russian
ServiceKind/String : Complete Main
Default : Да
Forced : Да

Аудио #2
Идентификатор : 3
Формат : AC-3
Формат/Информация : Audio Coding 3
Коммерческое название : Dolby Digital
Идентификатор кодека : A_AC3
Продолжительность : 2 ч. 27 м.
Вид битрейта : Постоянный
Битрейт : 160 Кбит/сек
Каналы : 2 канала
Channel layout : L R
Частота : 48,0 КГц
Частота кадров : 31,250 кадров/сек (1536 SPF)
Битовая глубина : 16 бит
Метод сжатия : С потерями
Размер потока : 169 Мбайт (0%)
Заголовок : iTunes
Язык : Ukrainian
ServiceKind/String : Complete Main
Default : Нет
Forced : Нет

Аудио #3
Идентификатор : 4
Формат : MLP FBA 16-ch
Формат/Информация : Meridian Lossless Packing FBA with 16-channel presentation
Коммерческое название : Dolby TrueHD with Dolby Atmos
Идентификатор кодека : A_TRUEHD
Продолжительность : 2 ч. 27 м.
Вид битрейта : Переменный
Битрейт : 5026 Кбит/сек
Максимальный битрейт : 8175 Кбит/сек
Каналы : 8 каналов
Channel layout : L R C LFE Ls Rs Lb Rb
Частота : 48,0 КГц
Частота кадров : 1200,000 кадров/сек (40 SPF)
Метод сжатия : Без потерь
Размер потока : 5,17 Гбайт (7%)
Заголовок : Original
Язык : English
Default : Нет
Forced : Нет
Number of dynamic objects : 11
Bed channel count : 1 канал
Bed channel configuration : LFE

Аудио #4
Идентификатор : 5
Формат : AC-3
Формат/Информация : Audio Coding 3
Коммерческое название : Dolby Digital
Идентификатор кодека : A_AC3
Продолжительность : 2 ч. 27 м.
Вид битрейта : Постоянный
Битрейт : 640 Кбит/сек
Каналы : 6 каналов
Channel layout : L R C LFE Ls Rs
Частота : 48,0 КГц
Частота кадров : 31,250 кадров/сек (1536 SPF)
Битовая глубина : 16 бит
Метод сжатия : С потерями
Размер потока : 675 Мбайт (1%)
Заголовок : Original, AC3 Core
Язык : English
ServiceKind/String : Complete Main
Default : Нет
Forced : Нет

Аудио #5
Идентификатор : 6
Формат : AC-3
Формат/Информация : Audio Coding 3
Коммерческое название : Dolby Digital
Идентификатор кодека : A_AC3
Продолжительность : 2 ч. 27 м.
Вид битрейта : Постоянный
Битрейт : 224 Кбит/сек
Каналы : 2 канала
Channel layout : L R
Частота : 48,0 КГц
Частота кадров : 31,250 кадров/сек (1536 SPF)
Битовая глубина : 16 бит
Метод сжатия : С потерями
Размер потока : 236 Мбайт (0%)
Заголовок : Commentary by director/writer/producer Christopher McQuarrie and actor/producer Tom Cruise
Язык : English
ServiceKind/String : Complete Main
Default : Нет
Forced : Нет

Аудио #6
Идентификатор : 7
Формат : AC-3
Формат/Информация : Audio Coding 3
Коммерческое название : Dolby Digital
Идентификатор кодека : A_AC3
Продолжительность : 2 ч. 27 м.
Вид битрейта : Постоянный
Битрейт : 224 Кбит/сек
Каналы : 2 канала
Channel layout : L R
Частота : 48,0 КГц
Частота кадров : 31,250 кадров/сек (1536 SPF)
Битовая глубина : 16 бит
Метод сжатия : С потерями
Размер потока : 236 Мбайт (0%)
Заголовок : Commentary by director/writer/producer Christopher McQuarrie and editor Eddie Hamilton
Язык : English
ServiceKind/String : Complete Main
Default : Нет
Forced : Нет

Аудио #7
Идентификатор : 8
Формат : AC-3
Формат/Информация : Audio Coding 3
Коммерческое название : Dolby Digital
Идентификатор кодека : A_AC3
Продолжительность : 2 ч. 27 м.
Вид битрейта : Постоянный
Битрейт : 224 Кбит/сек
Каналы : 2 канала
Channel layout : L R
Частота : 48,0 КГц
Частота кадров : 31,250 кадров/сек (1536 SPF)
Битовая глубина : 16 бит
Метод сжатия : С потерями
Размер потока : 236 Мбайт (0%)
Заголовок : Commentary by composer Lorne Balfe
Язык : English
ServiceKind/String : Complete Main
Default : Нет
Forced : Нет

Текст #1
Идентификатор : 9
Формат : UTF-8
Идентификатор кодека : S_TEXT/UTF8
Идентификатор кодека/Информация : UTF-8 Plain Text
Продолжительность : 2 ч. 25 м.
Битрейт : 1 бит/сек
ElementCount : 36
Размер потока : 1,29 Кбайт (0%)
Заголовок : Forced
Язык : Russian
Default : Нет
Forced : Да

Текст #2
Идентификатор : 10
Формат : UTF-8
Идентификатор кодека : S_TEXT/UTF8
Идентификатор кодека/Информация : UTF-8 Plain Text
Продолжительность : 2 ч. 26 м.
Битрейт : 68 бит/сек
ElementCount : 1575
Размер потока : 73,1 Кбайт (0%)
Заголовок : Full
Язык : Russian
Default : Нет
Forced : Нет

Текст #3
Идентификатор : 11
Формат : UTF-8
Идентификатор кодека : S_TEXT/UTF8
Идентификатор кодека/Информация : UTF-8 Plain Text
Продолжительность : 2 ч. 25 м.
Битрейт : 1 бит/сек
ElementCount : 37
Размер потока : 1,31 Кбайт (0%)
Заголовок : Forced
Язык : Ukrainian
Default : Нет
Forced : Да

Текст #4
Идентификатор : 12
Формат : UTF-8
Идентификатор кодека : S_TEXT/UTF8
Идентификатор кодека/Информация : UTF-8 Plain Text
Продолжительность : 2 ч. 26 м.
Битрейт : 75 бит/сек
ElementCount : 1576
Размер потока : 80,7 Кбайт (0%)
Заголовок : Full
Язык : Ukrainian
Default : Нет
Forced : Нет

Текст #5
Идентификатор : 13
Формат : UTF-8
Идентификатор кодека : S_TEXT/UTF8
Идентификатор кодека/Информация : UTF-8 Plain Text
Продолжительность : 2 ч. 19 м.
Битрейт : 53 бит/сек
ElementCount : 1854
Размер потока : 55,0 Кбайт (0%)
Заголовок : SDH
Язык : English
Default : Нет
Forced : Нет

Текст #6
Идентификатор : 14
Формат : UTF-8
Идентификатор кодека : S_TEXT/UTF8
Идентификатор кодека/Информация : UTF-8 Plain Text
Продолжительность : 2 ч. 19 м.
Битрейт : 92 бит/сек
ElementCount : 1854
Размер потока : 94,8 Кбайт (0%)
Заголовок : SDH Colored
Язык : English
Default : Нет
Forced : Нет

Текст #7
Идентификатор : 15
Формат : PGS
Идентификатор кодека : S_HDMV/PGS
Идентификатор кодека/Информация : Picture based subtitle format used on BDs/HD-DVDs
Продолжительность : 32 м. 10 с.
Битрейт : 596 бит/сек
ElementCount : 40
Размер потока : 141 Кбайт (0%)
Заголовок : Forced
Язык : English
Default : Нет
Forced : Да

Текст #8
Идентификатор : 16
Формат : PGS
Идентификатор кодека : S_HDMV/PGS
Идентификатор кодека/Информация : Picture based subtitle format used on BDs/HD-DVDs
Продолжительность : 2 ч. 19 м.
Битрейт : 28,4 Кбит/сек
ElementCount : 3111
Размер потока : 28,3 Мбайт (0%)
Язык : English
Default : Нет
Forced : Нет

Текст #9
Идентификатор : 17
Формат : PGS
Идентификатор кодека : S_HDMV/PGS
Идентификатор кодека/Информация : Picture based subtitle format used on BDs/HD-DVDs
Продолжительность : 2 ч. 19 м.
Битрейт : 33,7 Кбит/сек
ElementCount : 3747
Размер потока : 33,5 Мбайт (0%)
Заголовок : SDH
Язык : English
Default : Нет
Forced : Нет

Текст #10
Идентификатор : 18
Формат : PGS
Идентификатор кодека : S_HDMV/PGS
Идентификатор кодека/Информация : Picture based subtitle format used on BDs/HD-DVDs
Продолжительность : 2 ч. 27 м.
Битрейт : 78,9 Кбит/сек
ElementCount : 6950
Размер потока : 83,1 Мбайт (0%)
Заголовок : Commentary by director/writer/producer Christopher McQuarrie and actor/producer Tom Cruise
Язык : English
Default : Нет
Forced : Нет

Текст #11
Идентификатор : 19
Формат : PGS
Идентификатор кодека : S_HDMV/PGS
Идентификатор кодека/Информация : Picture based subtitle format used on BDs/HD-DVDs
Продолжительность : 2 ч. 25 м.
Битрейт : 80,2 Кбит/сек
ElementCount : 6544
Размер потока : 83,6 Мбайт (0%)
Заголовок : Commentary by director/writer/producer Christopher McQuarrie and editor Eddie Hamilton
Язык : English
Default : Нет
Forced : Нет

Текст #12
Идентификатор : 20
Формат : PGS
Идентификатор кодека : S_HDMV/PGS
Идентификатор кодека/Информация : Picture based subtitle format used on BDs/HD-DVDs
Продолжительность : 2 ч. 21 м.
Битрейт : 39,9 Кбит/сек
ElementCount : 3662
Размер потока : 40,3 Мбайт (0%)
Заголовок : Commentary by composer Lorne Balfe
Язык : English
Default : Нет
Forced : Нет

Меню
00:00:00.000 : en:Chapter 1
00:10:37.011 : en:Chapter 2
00:17:11.405 : en:Chapter 3
00:26:57.241 : en:Chapter 4
00:35:56.654 : en:Chapter 5
00:49:18.414 : en:Chapter 6
01:00:00.806 : en:Chapter 7
01:10:23.719 : en:Chapter 8
01:17:07.289 : en:Chapter 9
01:28:28.470 : en:Chapter 10
01:39:09.652 : en:Chapter 11
01:46:26.547 : en:Chapter 12
01:55:45.564 : en:Chapter 13
02:03:10.592 : en:Chapter 14
02:14:00.908 : en:Chapter 15
02:19:48.088 : en:Chapter 16
скриншот   скриншот   скриншот  
pb.wtf



Скачать Миссия невыполнима: Последствия через торрент https://a.radikal.ru/a10/1811/9b/317e1e8ff631.jpg Скачать, смотреть онлайн Миссия невыполнима: Последствия бесплантно в хорошем качестве Описание: Итан Хант и его команда, а также недавно примкнувшие к ним союзники, вынуждены действовать наперегонки со временем, когда новая ... 10 10 8
Info! Золотая раздача, скачанное не засчитывается.
Торрент: Зарегистрирован [2018-11-24 19:21] · скачан: 140 раз
Статус: √ проверено
Размер: 70.71 GB
Как cкачать? Как скачать Миссия невыполнима: Последствия через торрент | UTorrent

% Раздел Тема Автор DL S | L
Фильмы (HD 720p, 1080p) (48-60 fps) [ 5.44 GB ] Миссия невыполнима: Последствия / Mission: Impossible - Fallout [2018 BDRip 720p / 60 FPS ] от R.G. HD-Films slaventi-69 Скачать
1 | 0
3D Фильмы [ 10.75 GB ] Миссия невыполнима: Последствия 3Д / Mission: Impossible - Fallout 3D [2018 BDRip 1080p] [Anamorph SideBySide / Горизонтальная анаморфная стереопара] [IMAX Edition] DUB [] bober100 Скачать
1 | 0
Фильмы (Blu-ray, BD-Remux, HDDVD) [ 33.34 GB ] Миссия невыполнима: Последствия / Mission: Impossible - Fallout [2018 BD Remux 1080p] [IMAX Edition] AVO [Ю.Живов] +DUB [] bober100 Скачать
1 | 0
Ultra HD (UHD: 2K, 4K, 8K) — видео сверхвысокой чёткости [ 76.08 GB ] Миссия невыполнима: Последствия / Mission: Impossible - Fallout [2018 UHD BDRemux 2160p] [IMAX Edition] DUB + AVO [Ю. Живов] sheker187 Скачать
1 | 0
Фильмы с авторской озвучкой [ 2.17 GB ] Миссия невыполнима: Последствия / Mission: Impossible - Fallout [2018 BDRip] [IMAX Edition] [AVO] killermax2013 Скачать
1 | 0
Ultra HD (UHD: 2K, 4K, 8K) — видео сверхвысокой чёткости [ 71.16 GB ] Миссия невыполнима: Последствия / Mission: Impossible - Fallout [2018 UHD BDRemux 2160p] [Dolby Vision TV] [IMAX Edition] DUB [] bober100 Скачать
1 | 0
Фильмы 2018 [DVDrip, WEB-DLRip, HDrip] (DUB, MVO) [ 2.18 GB ] Миссия невыполнима: Последствия / Mission: Impossible - Fallout [2018 BDRip] - [] Twi7ter Скачать
1 | 0

28-11-2019 20:33  

Отключить вcю реклaмy на сайте

24-11-2018 19:32 Миссия невыполнима: Последствия Скачать торрент  

А вы не в курсе 3D когда ждать?pb.wtf



24-11-2018 19:41 Миссия невыполнима: Последствия Скачать торрент  

zra, на данный момент дата релиза 3D-Blu-ray неизвестна. Можете отслеживать самостоятельно по этой ссылке (жмите)

скриншот  pb.wtf



24-11-2018 20:20 Миссия невыполнима: Последствия Скачать торрент  

Спасибо!pb.wtf



25-11-2018 07:51 Миссия невыполнима: Последствия Скачать торрент  

-Lexx-, А вот по этому сайту ещё Мстители не вышли в 3D,а как известно уже в августе посмотрели?pb.wtf



25-11-2018 08:13 Миссия невыполнима: Последствия Скачать торрент  

zra, все там есть. В поиске на том сайте выберите опцию "All countries", введите оригинальное название фильма ( на английском) и посмотрите результат. Ну и сверху над поисковой строкой выбирайте 3D. В общем, разберетесь, я думаю.pb.wtf



    Дорогой пользователь! Огромная просьба, поблагодарите релизера, оцените раздачу и оставьте свои комментарий, если Вы скачали Миссия невыполнима: Последствия через торрент бесплатно!
    Комментировать посты могут только пользователи прошедшие не сложную регистрацию
    Показать сообщения:    

    Миссия невыполнима: Последствия через торрент
    Скачать бесплатно Миссия невыполнима: Последствия
    Миссия невыполнима: Последствия скачать торрент
    Миссия невыполнима: Последствия смотреть онлайн
    Cкачать фильм Миссия невыполнима: Последствия бесплатно
    Миссия невыполнима: Последствия скачать торрент в хорошем качестве
    Миссия невыполнима: Последствия смотреть онлайн бесплатно в хорошем качестве


    Вы не можете начинать темы
    Вы не можете отвечать на сообщения
    Вы не можете редактировать свои сообщения
    Вы не можете удалять свои сообщения
    Вы не можете голосовать в опросах
    Вы не можете прикреплять файлы к сообщениям
    Вы можете скачивать файлы