новый адрес пиратбит piratbit
Мега распродажа FORZA HORIZON 4 ULTIMATE+ВСЕ DLC+ОНЛАЙН всего за 499р. 349 руб. (супер цена). Внимание количество ограничено!!!

iTunes

1+1

iTunes

мы

iTunes

1

iTunes

Чернобыль

iTunes

Ральф против интернета

Лицензия

ПШазам

Лицензия

Игра престолов

Лицензия

30
pack

ВАЖНО

!!Акция!!

Alien_RageХит недели

RePack

Resident Evil 21

ИГРА 18+

pack

RePack

Metro:Exodus

!!Акция!!

Alien_Rage

RePack

fifa19

RePack

Assassins Creed: Odyssey

RePack

NEED FOR SPEED™ PAYBACK

3 сезон

9 сезон

Бесстыжие 9 сезон

Все сериалы

все сериалы на PB.wtf

RePack

FAR CRY 5
Ребята, катастрофически не хватает 1900р. для оплаты серверов за Октябрь (всвязи с блокировками трафик упал в 3 раза), 1-2р., выручайте.
  

Большая дорога (Юрий Озеров) [1962, СССР, Чехословакия, драма, комедия, военный, биография, SATRip от AVP Studio] pb.wtf

Большая дорога через торрент pb.wtf

Размер: 1.09 GB | Добавлен: 11 мес. назад | Торрент скачан:15 раз
Скачать  

25-11-2018 09:48 Большая дорога Скачать торрент  

Большая дорога
Страна: СССР, Чехословакия
Производство: Мосфильм, Баррандов

Жанр: драма, комедия, военный, биография
Год выпуска: 1962
Продолжительность: 01:35:23

Перевод: Не требуется
Cубтитры: нет
Оригинальная аудиодорожка: русский

Режиссер: Гpигopий Липшиц

В ролях:
Йозеф Абргам, Рудольф Грушинский, Инна Гулая, Ярослав Марван, Франтишек Филиповский, Юрий Яковлев, Александр Кутепов, Николай Гринько, Олег Борисов, Сергей Филиппов, Йозеф Кемр, Йозеф Глиномаз, Франтишек Ганус...
Об актёрах подробней

Описание:
Посвящен известному чешскому писателя Ярославу Гашеку.
Молодой журналист Ярослав Гашек (Йозеф Абрхам) доставляет много хлопот пражской полиции. Его высказывания можно расценить как политически неблагонадёжные, он откровенно издевается над тайными агентами, а после объявления войны в насмешку зарегистрировался в одном из отелей под именем приехавшего из Москвы Ивана Иванова.

Исходник: DVB
Качество видео: SATRip
Формат видео: AVI

Видео: 688x512 (4:3), 25,000 кадров/сек, XviD ~ 1434 kbps avg, 0.163 bit/pixel
Аудио: 48 kHz, Dolby Digital AC3 2.0, 192 kbps

Раздача от:
Общее
Полное имя : Bolshaya.doroga.1962.SATRip_[New-team]_by_AVP_Studio.avi
Формат : AVI
Формат/Информация : Audio Video Interleave
Размер файла : 1,09 Гбайт
Продолжительность : 1 ч. 35 м.
Общий поток : 1635 Кбит/сек
Программа кодирования : VirtualDubMod 1.5.10.3 | www.virtualdub-fr.org || (build 2550/release)
Библиотека кодирования : VirtualDubMod build 2550/release

Видео
Идентификатор : 0
Формат : MPEG-4 Visual
Профиль формата : Advanced Simple@L5
Настройки формата : BVOP1 / Custom Matrix
Параметр BVOP формата : 1
Параметр QPel формата : Нет
Параметр GMC формата : Без точки перехода
Параметр матрицы формата : Выборочная
Идентификатор кодека : XVID
Идентификатор кодека/Подсказка : XviD
Продолжительность : 1 ч. 35 м.
Битрейт : 1434 Кбит/сек
Ширина : 688 пикселей
Высота : 512 пикселей
Соотношение сторон : 4:3
Частота кадров : 25,000 кадров/сек
Цветовое пространство : YUV
Субдискретизация насыщенности : 4:2:0
Битовая глубина : 8 бит
Тип развёртки : Прогрессивная
Метод сжатия : С потерями
Бит/(Пиксели*Кадры) : 0.163
Размер потока : 978 Мбайт (88%)
Библиотека кодирования : XviD 73

Аудио
Идентификатор : 1
Формат : AC-3
Формат/Информация : Audio Coding 3
Коммерческое название : Dolby Digital
Идентификатор кодека : 2000
Продолжительность : 1 ч. 35 м.
Вид битрейта : Постоянный
Битрейт : 192 Кбит/сек
Каналы : 2 канала
Channel layout : L R
Частота : 48,0 КГц
Частота кадров : 31,250 кадров/сек (1536 SPF)
Битовая глубина : 16 бит
Метод сжатия : С потерями
Размер потока : 131 Мбайт (12%)
Выравнивание : Разделение по промежуткам
Продолжительность промежутка : 40 мс. (1,00 видеокадр)
Время предзагрузки промежутка : 500 мс
pb.wtf



Скачать Большая дорога через торрент http://picplus.ru/img/1811/25/f3eb97b3.png Скачать фильм Большая дорога через торрент бесплантно в хорошем качестве Описание:Посвящен известному чешскому писателя Ярославу Гашеку.Молодой журналист Ярослав Гашек (Йозеф Абрхам) доставляет много хлопот ... 10 10 1
Торрент: Зарегистрирован [2018-11-25 09:52] · скачан: 15 раз
Статус: √ проверено
Размер: 1.09 GB
Как cкачать? Как скачать Большая дорога через торрент | qTorrent

% Раздел Тема Автор DL S | L
Ultra HD (UHD: 2K, 4K, 8K) — видео сверхвысокой чёткости [ 18.03 GB ] В погоне за Бонни и Клайдом / Разбойники с большой дороги / The Highwaymen [2019 UHD WEBRip 2160p] DUB + DVO + AVO sheker187 Скачать
1 | 0
Ultra HD (UHD: 2K, 4K, 8K) — видео сверхвысокой чёткости [ 24.66 GB ] В погоне за Бонни и Клайдом / Разбойники с большой дороги / The Highwaymen [2019 UHD WEBRip 2160p] [SDR] DUB [АРК-ТВ Studio и VSI International] + AVO [Ю. Немахов] sheker187 Скачать
1 | 0
Фильмы 2019 [DVDrip, WEB-DLRip, HDrip] (DUB, MVO) [ 1.46 GB ] Разбойники с большой дороги / The Highwaymen [2019 WEB-DLRip] killermax2013 Скачать
4 | 0
Фильмы 2019 [DVDrip, WEB-DLRip, HDrip] (DUB, MVO) [ 2.17 GB ] В погоне за Бонни и Клайдом / Разбойники с большой дороги / The Highwaymen [2019 WEB-DLRip-AVC] DUB [АРК-ТВ Studio & VSI International] bober100 Скачать
4 | 0
Фильмы (WEB-DL 720p, 1080p) [ 3.4 GB ] В погоне за Бонни и Клайдом / Разбойники с большой дороги / The Highwaymen [2019 WEB-DL 720p] DUB [АРК-ТВ Studio & VSI International] bober100 Скачать
2 | 0
Фильмы 2019 [DVDrip, WEB-DLRip, HDrip] (DUB, MVO) [ 1.47 GB ] В погоне за Бонни и Клайдом / Разбойники с большой дороги / The Highwaymen [2019 WEB-DLRip ] Kuzich Скачать
5 | 0
Фильмы 2019 [DVDrip, WEB-DLRip, HDrip] (DUB, MVO) [ 1.45 GB ] Разбойники с большой дороги / The Highwaymen [2019 WEB-DLRip-AVC] - ExKinoRay Enigma2010 Скачать
3 | 0


>> Регистрируемся здесь <<






Отзывы и комментарии о схеме читаем и пишем здесь: ---> Отзывы и комментарии о схеме

Новые благодарочки в телеграм довольных пользователей:
скриншот   скриншот   скриншот   скриншот   скриншот
    Дорогой пользователь! Огромная просьба, поблагодарите релизера, оцените раздачу и оставьте свои комментарий, если Вы скачали Большая дорога через торрент бесплатно! Внесите свою лепту в развитие PiratBit!
    Комментировать посты могут только пользователи прошедшие не сложную регистрацию
    Показать сообщения:    

    Большая дорога через торрент
    Скачать бесплатно Большая дорога
    Большая дорога скачать торрент
    Большая дорога смотреть онлайн
    Cкачать фильм Большая дорога бесплатно
    Большая дорога скачать торрент в хорошем качестве
    Большая дорога смотреть онлайн бесплатно в хорошем качестве


    Вы не можете начинать темы
    Вы не можете отвечать на сообщения
    Вы не можете редактировать свои сообщения
    Вы не можете удалять свои сообщения
    Вы не можете голосовать в опросах
    Вы не можете прикреплять файлы к сообщениям
    Вы можете скачивать файлы