Ссылка на приватное зеркало нашего сайта всего за 1$. Внимание количество ограничено!!!

2 сезон

iTunes

1 сезон

1

iTunes

iTunes

iTunes

1 сезон

RePack

30

ИГРА 18+

pack

ВАЖНО

!!Акция!!

Alien_RageХит недели

RePack

MK11
pack

Забери бонус

RePack

jed

!!Акция!!

Alien_Rage

RePack

fifa19

RePack

Assassins Creed: Odyssey

RePack

NEED FOR SPEED™ PAYBACK

4 сезон

9 сезон

Бесстыжие 9 сезон

Все сериалы

все сериалы на PB.wtf

RePack

FAR CRY 5
  

МосГаз / Серий: 1 - 8 из 8 (Андрей Малюков) [2012 г., детектив, криминал, WEB-DLRip] pb.wtf

МосГаз через торрент pb.wtf

Раздают: 2 [ 91 KB/s ]
Размер: 6.3 GB | Добавлен: 1 год 11 мес. назад | Торрент скачан:154 раза
Скачать  

25-11-2018 15:20 МосГаз Скачать торрент  

МосГаз
Год выпуска: 2012
Страна: Россия
Жанр: Детектив, криминал
Серий: 1 - 8 из 8
Продолжительность: ~ 00:59:00 серия

Режиссер: Андрей Малюков

rating

В ролях: Анатолий Кузнецов, Марина Александрова, Агния Кузнецова, Андрей Смоляков, Светлана Ходченкова, Юрий Чурсин, Максим Матвеев, Александр Андриенко, Денис Курочка, Иван Оранский, Илья Бутковский, Александр Мякушко, Юрий Воробьёв, Юрий Тарасов, Семён Трескунов, Андрей Якимов

Описание: 1962 год. Москва. Владимир Ионесян, по кличке Мосгаз, стал первым официально признанным серийным маньяком в Советском Союзе. Его кровавые деяния навсегда вошли в историю криминалистики, а его прозвищем мамы пугали детей. Представляясь работником Мосгаза, маньяк свободно проникал в квартиры людей, выбирал жертву и оценивал благосостояние хозяев квартир. Позже следствие докажет причастность Мосгаза к шести убийствам, в том числе на его совести четыре смерти несовершеннолетних граждан СССР. Мало кто знает, что все свои преступления Мосгаз посвятил юной артистке кордебалета. Он убивал с легкостью, словно играл роль. По приказу Хрущева на поимку серийного убийцы отводилось две недели. Приказ был выполнен в срок. Что двигало преступником: жажда наживы, несчастная любовь или болезненное стремление убивать?
Качество: WEB-DLRip
Формат: AVI
Видео кодек: XviD
Аудио кодек: AC3
Видео: XviD, ~ 1700 Кбит/с, 720x400
Аудиo: Русский, AC3, 2 ch, 192 Кбит/с
Видео
Идентификатор : 0
Формат : MPEG-4 Visual
Профиль формата : Advanced Simple@L5
Настройки формата : BVOP1 / Custom Matrix
Параметр BVOP формата : 1
Параметр QPel формата : Нет
Параметр GMC формата : Без точки перехода
Параметр матрицы формата : Выборочная
Идентификатор кодека : XVID
Идентификатор кодека/Подсказка : XviD
Продолжительность : 1 ч. 24 м.
Битрейт : 1700 Кбит/сек
Ширина : 720 пикселей
Высота : 400 пикселей
Соотношение сторон : 16:9
Частота кадров : 25,000 кадров/сек
Цветовое пространство : YUV
Субдискретизация насыщенности : 4:2:0
Битовая глубина : 8 бит
Тип развёртки : Прогрессивная
Метод сжатия : С потерями
Бит/(Пиксели*Кадры) : 0.236
Размер потока : 1,01 Гбайт (89%)
Библиотека кодирования : XviD 73

Аудио
Идентификатор : 1
Формат : AC-3
Формат/Информация : Audio Coding 3
Коммерческое название : Dolby Digital
Идентификатор кодека : 2000
Продолжительность : 1 ч. 24 м.
Вид битрейта : Постоянный
Битрейт : 192 Кбит/сек
Каналы : 2 канала
Channel layout : L R
Частота : 48,0 КГц
Частота кадров : 31,250 кадров/сек (1536 SPF)
Битовая глубина : 16 бит
Метод сжатия : С потерями
Размер потока : 117 Мбайт (10%)
Выравнивание : Разделение по промежуткам
Продолжительность промежутка : 40 мс. (1,00 видеокадр)
Время предзагрузки промежутка : 500 мс.
ServiceKind/String : Complete Main

скриншот   скриншот   скриншот   скриншот   скриншот   скриншот  

pb.wtf



Скачать МосГаз через торрент http://pic1.kartinco.top/images/11/bzfk1.jpg Скачать фильм МосГаз через торрент бесплантно в хорошем качестве Описание: 1962 год. Москва. Владимир Ионесян, по кличке Мосгаз, стал первым официально признанным серийным маньяком в Советском Союзе. Его ... 9.9 10 7
Торрент: Зарегистрирован [2018-11-25 15:20] · скачан: 154 раз
Статус: √ проверено
Размер: 6.3 GB
Как cкачать? Как скачать МосГаз через торрент | qTorrent

% Раздел Тема Автор DL S | L
Наши сериалы [ 4.99 GB ] Мосгаз. Новое дело майора Черкасова. Катран / Серии: 1-8 из 8 [2020 WEB-DLRip-AVC] bober100 Скачать
3 | 1
Наши сериалы [ 7.67 GB ] Мосгаз. Новое дело майора Черкасова. Катран / Серии: 1-8 из 8 [2020 WEB-DL 720p] bober100 Скачать
4 | 0
Наши сериалы [ 5.01 GB ] Мосгаз. Новое дело майора Черкасова. Катран / Серии: 1-8 из 8 [2020 WEB-DLRip] bober100 Скачать
1 | 1
Наши сериалы [ 5.95 GB ] Мосгаз. Новое дело майора Черкасова. Катран / Серии: 1-8 из 8 [2020 HDTVRip-AVC] bober100 Скачать
13 | 5
Наши сериалы [ 5.08 GB ] Мосгаз. Новое дело майора Черкасова. Катран / Серии: 1-8 из 8 [2020 SATRip] bober100 Скачать
16 | 4
Наши сериалы [ 10.02 GB ] Мосгаз. Новое дело майора Черкасова. Катран / Серии: 1-8 из 8 [2020 HDTVRip 720p] bober100 Скачать
9 | 1
Наши сериалы [ 15.16 GB ] Мосгаз. Новое дело майора Черкасова. Катран / Серии: 1-8 из 8 [2020 HDTV 1080i] bober100 Скачать
27 | 5

28-11-2019 20:33  

Отключить всю рекламу на сайте

    Дорогой пользователь! Огромная просьба, поблагодарите релизера, оцените раздачу и оставьте свои комментарий, если Вы скачали МосГаз через торрент бесплатно! Внесите свою лепту в развитие PiratBit!
    Комментировать посты могут только пользователи прошедшие не сложную регистрацию
    Показать сообщения:    

    МосГаз через торрент
    Скачать бесплатно МосГаз
    МосГаз скачать торрент
    МосГаз смотреть онлайн
    Cкачать фильм МосГаз бесплатно
    МосГаз скачать торрент в хорошем качестве
    МосГаз смотреть онлайн бесплатно в хорошем качестве


    Вы не можете начинать темы
    Вы не можете отвечать на сообщения
    Вы не можете редактировать свои сообщения
    Вы не можете удалять свои сообщения
    Вы не можете голосовать в опросах
    Вы не можете прикреплять файлы к сообщениям
    Вы можете скачивать файлы