Ссылка на приватное зеркало нашего сайта всего за 1$. Внимание количество ограничено!!!

2 сезон

iTunes

1 сезон

1

2 сезон

2 сезон

iTunes

1 сезон

RePack

30

Новинка

ВАЖНО

ИГРА 18+

pack

RePack

MK11
pack

Забери бонус

RePack

jed

!!Акция!!

Alien_Rage

RePack

fifa19

RePack

Assassins Creed: Odyssey

RePack

NEED FOR SPEED™ PAYBACK

4 сезон

9 сезон

Бесстыжие 9 сезон

Все сериалы

все сериалы на PB.wtf

RePack

FAR CRY 5
  

Бельканто / Bel Canto (Пол Вайц) [2018, Триллер, драма, мелодрама, BD Remux 1080p] DUB [iTunes] pb.wtf

Бельканто через торрент pb.wtf

Размер: 12.63 GB | Добавлен: 1 год 11 мес. назад | Торрент скачан:19 раз
Скачать  

26-11-2018 04:07 Бельканто Скачать торрент  

Бельканто / Bel Canto Год выпуска: 2018
Страна: США
Жанр: Триллер, драма, мелодрама
Продолжительность: 01:40:56
Перевод: Дублированный | iTunes
Субтитры: Русские (Форсированные), Английские (форсированные (хардсаб), полные)

Режиссер: Пол Вайц

rating

В ролях:

Джулианна Мур, Кэн Ватанабэ, Себастьян Кох, Теноч Уэрта, Рё Касэ, Мария Мерседес Корой, Кристофер Ламберт, Торбьорн Харр, Эльза Зильберштейн, Олек Крупа

Описание:

Оперная дива Роксана Косс приезжает в одну из стран Южной Америки, чтобы выступить в посольстве на приеме по случаю визита японского магната. Гости наслаждались великолепным сопрано Роксаны, когда в здание ворвались вооруженные люди во главе с генералом Беньямином. В обмен на 490 жизней они требуют освобождения политических заключенных. Но власти не торопятся выполнять их требования, и ситуация с заложниками затягивается.

Качество: BD Remux 1080p
Формат: MKV

Видео: 1920x1080 (16:9), 23.976 fps, MPEG-4 AVC ~ 14,2 Мbps avg, 0.285 bit/pixel
Аудио#1: AC3, 48 kHz, 6 ch, ~384.00 kbps avg | русский | iTunes
Аудио#2: DTS-HD MA, 48 kHz, 6 ch, ~3364.00 kbps avg | английский | Оригинал
скриншот  скриншот  скриншот  скриншот  скриншот  

Общее
Уникальный идентификатор : 328538051652070198670805987597776663858 (0xF72A208D3679AC3DA1652BF518513532)
Полное имя : Bel.Canto.2018.1080p.BluRay.REMUX.DD5.1.Rus.Eng.mkv
Формат : Matroska
Версия формата : Version 4 / Version 2
Размер файла : 12,6 Гбайт
Продолжительность : 1 ч. 40 м.
Режим общего битрейта : Переменный
Общий поток : 17,9 Мбит/сек
Название фильма : Bel.Canto.2018.1080p.BluRay.REMUX.DD5.1.Rus.Eng
Дата кодирования : UTC 2018-11-25 09:19:36
Программа кодирования : mkvmerge v27.0.0 ('Metropolis') 64-bit
Библиотека кодирования : libebml v1.3.6 + libmatroska v1.4.9

Видео
Идентификатор : 1
Формат : AVC
Формат/Информация : Advanced Video Codec
Профиль формата : High@L4.1
Настройки формата : CABAC / 3 Ref Frames
Параметр CABAC формата : Да
Параметр RefFrames формата : 3 кадра
Параметр GOP формата : M=3, N=12
Идентификатор кодека : V_MPEG4/ISO/AVC
Продолжительность : 1 ч. 40 м.
Вид битрейта : Переменный
Битрейт : 14,2 Мбит/сек
Максимальный битрейт : 35,0 Мбит/сек
Ширина : 1920 пикселей
Высота : 1080 пикселей
Соотношение сторон : 16:9
Режим частоты кадров : Постоянный
Частота кадров : 23,976 (24000/1001) кадра/сек
Стандарт вещания : NTSC
Цветовое пространство : YUV
Субдискретизация насыщенности : 4:2:0
Битовая глубина : 8 бит
Тип развёртки : Прогрессивная
Бит/(Пиксели*Кадры) : 0.285
Размер потока : 9,99 Гбайт (79%)
Заголовок : Bel.Canto.2018.1080p.BluRay.REMUX.DD5.1.Rus.Eng
Default : Да
Forced : Нет
Цветовой диапазон : Limited
Основные цвета : BT.709
Характеристики трансфера : BT.709
Коэффициенты матрицы : BT.709

Аудио #1
Идентификатор : 2
Формат : AC-3
Формат/Информация : Audio Coding 3
Идентификатор кодека : A_AC3
Продолжительность : 1 ч. 40 м.
Вид битрейта : Постоянный
Битрейт : 384 Кбит/сек
Каналы : 6 каналов
Расположение каналов : Front: L C R, Side: L R, LFE
Частота : 48,0 КГц
Частота кадров : 31,250 кадров/сек (1536 SPF)
Битовая глубина : 16 бит
Метод сжатия : С потерями
Размер потока : 277 Мбайт (2%)
Заголовок : iTunes
Язык : Russian
ServiceKind/String : Complete Main
Default : Да
Forced : Нет

Аудио #2
Идентификатор : 3
Формат : DTS
Формат/Информация : Digital Theater Systems
Профиль формата : MA / Core
Идентификатор кодека : A_DTS
Продолжительность : 1 ч. 40 м.
Вид битрейта : Переменный / Постоянный
Битрейт : 3364 Кбит/сек / 1509 Кбит/сек
Каналы : 6 каналов
Расположение каналов : Front: L C R, Side: L R, LFE
Частота : 48,0 КГц
Частота кадров : 93,750 кадра/сек (512 SPF)
Битовая глубина : 24 бит
Метод сжатия : Без потерь / Lossy
Размер потока : 2,37 Гбайт (19%)
Язык : English
Default : Нет
Forced : Нет

Текст #1
Идентификатор : 4
Формат : UTF-8
Идентификатор кодека : S_TEXT/UTF8
Идентификатор кодека/Информация : UTF-8 Plain Text
Продолжительность : 1 ч. 31 м.
Битрейт : 27 бит/сек
ElementCount : 476
Размер потока : 18,4 Кбайт (0%)
Заголовок : Forced
Язык : Russian
Default : Да
Forced : Да

Текст #2
Идентификатор : 5
Формат : UTF-8
Идентификатор кодека : S_TEXT/UTF8
Идентификатор кодека/Информация : UTF-8 Plain Text
Продолжительность : 1 ч. 35 м.
Битрейт : 31 бит/сек
ElementCount : 1093
Размер потока : 22,4 Кбайт (0%)
Заголовок : Full
Язык : English
Default : Нет
Forced : Нет

Меню
00:00:00.000 : :00:00:00.000
00:08:30.218 : :00:08:30.218
00:20:14.839 : :00:20:14.839
00:27:27.729 : :00:27:27.729
00:35:59.699 : :00:35:59.699
00:42:03.312 : :00:42:03.312
00:52:07.541 : :00:52:07.541
01:01:59.758 : :01:01:59.758
01:13:56.182 : :01:13:56.182
01:18:35.961 : :01:18:35.961
01:26:03.450 : :01:26:03.450
01:34:27.954 : :01:34:27.954

pb.wtf



Скачать Бельканто через торрент https://i108.fastpic.ru/big/2018/1125/b3/143e6037242ff054f620f2da4598feb3.jpg Скачать фильм Бельканто через торрент бесплантно в хорошем качестве Описание: Оперная дива Роксана Косс приезжает в одну из стран Южной Америки, чтобы выступить в посольстве на приеме по случаю визита ... 10 10 3
Торрент: Зарегистрирован [2018-11-26 04:07] · скачан: 19 раз
Статус: √ проверено
Размер: 12.63 GB
Как cкачать? Как скачать Бельканто через торрент | qTorrent

% Раздел Тема Автор DL S | L
Фильмы 2018 [DVDrip, WEB-DLRip, HDrip] (DUB, MVO) [ 1.86 GB ] Бельканто / Bel Canto [2018 BDRip-AVC] bober100 Скачать
1 | 0
Фильмы 2018 [DVDrip, WEB-DLRip, HDrip] (DUB, MVO) [ 1.42 GB ] Бельканто / Bel Canto [2018 BDRip] - Twi7ter Скачать
1 | 0
Фильмы [HD 720p, 1080p] (Хороший звук DUB, MVO) [ 7.68 GB ] Бельканто / Bel Canto [2018 BDRip 1080p] bober100 Скачать
1 | 0
Фильмы [HD 720p, 1080p] (Хороший звук DUB, MVO) [ 3.55 GB ] Бельканто / Bel Canto [2018 BDRip 720p] bober100 Скачать
1 | 0
Фильмы 2018 [DVDrip, WEB-DLRip, HDrip] (DUB, MVO) [ 745 MB ] Бельканто / Bel Canto [2018 HDRip] bober100 Скачать
1 | 0
Фильмы 2018 [DVDrip, WEB-DLRip, HDrip] (DUB, MVO) [ 1.46 GB ] Бельканто / Bel Canto [2018 BDRip] bober100 Скачать
1 | 0

28-11-2019 20:33  

Отключить всю рекламу на сайте

    Дорогой пользователь! Огромная просьба, поблагодарите релизера, оцените раздачу и оставьте свои комментарий, если Вы скачали Бельканто через торрент бесплатно! Внесите свою лепту в развитие PiratBit!
    Комментировать посты могут только пользователи прошедшие не сложную регистрацию
    Показать сообщения:    

    Бельканто через торрент
    Скачать бесплатно Бельканто
    Бельканто скачать торрент
    Бельканто смотреть онлайн
    Cкачать фильм Бельканто бесплатно
    Бельканто скачать торрент в хорошем качестве
    Бельканто смотреть онлайн бесплатно в хорошем качестве


    Вы не можете начинать темы
    Вы не можете отвечать на сообщения
    Вы не можете редактировать свои сообщения
    Вы не можете удалять свои сообщения
    Вы не можете голосовать в опросах
    Вы не можете прикреплять файлы к сообщениям
    Вы можете скачивать файлы