новый адрес
Ссылка на приватное зеркало всего за 1$. Внимание количество ограничено!!!

iTunes

1+1

iTunes

мы

WEB-DL

1

iTunes

Чернобыль

iTunes

Ральф против интернета

Лицензия

ПШазам

Лицензия

Оно 2

Лицензия

30
pack

Вам бонус

ВАЖНО

!!Акция!!

Alien_RageХит недели

RePack

Resident Evil 21

ИГРА 18+

pack

RePack

jed

!!Акция!!

Alien_Rage

RePack

fifa19

RePack

Assassins Creed: Odyssey

RePack

NEED FOR SPEED™ PAYBACK

3 сезон

9 сезон

Бесстыжие 9 сезон

Все сериалы

все сериалы на PB.wtf

RePack

FAR CRY 5
Ребята, катастрофически не хватает 1900р. для оплаты серверов за Октябрь (всвязи с блокировками трафик упал в 3 раза), 1-2р., выручайте.
  

Безупречная жизнь / Uma Vida Sublime (Луиш Диого) [2018, Триллер, WEB-DLRip] MVO [iTunes] pb.wtf

Безупречная жизнь через торрент pb.wtf

Раздают: 1 [ 0 KB/s ]
Размер: 1.46 GB | Добавлен: 1 год назад | Торрент скачан:385 раз
Скачать  

26-11-2018 04:23 Безупречная жизнь Скачать торрент  

Безупречная жизнь / Uma Vida Sublime Год выпуска: 2018
Страна: Португалия
Жанр: Триллер
Продолжительность: 01:45:49
Перевод: Профессиональный многоголосый | iTunes
Субтитры: отсутствуют

Режиссер: Луиш Диого

rating

В ролях:

Эрик Да Силва, Сюзи Филипе, Руй Оливейра, Пауло Калатре, Вальдемар Сантош, Мафалда, Жоржи Ролла, Тьяго Морейра, Анжела Маркус, Тереза Чавес

Описание:

Казалось бы, жизнь улыбается Жилу Морейре. У него большой дом, отличный автомобиль и непыльная работа. Однако жена изводит Жила своими придирками, дочери его ни в грош не ставят и только клянчат деньги на новые покупки, а сам он изнывает от скуки на рабочем месте. Однажды этому безрадостному существованию приходит конец. Жил берется помочь незнакомцу. Он садится в его машину, чтобы показать дорогу к ближайшему ресторанчику, не догадываясь, что его подстерегает смертельная опасность...

Качество: WEB-DLRip
Формат: AVI

Видео: Xvid 73, 704x384, ~1772 kbps, 24,000 fps
Аудио: русский, AC3, 2.0 ch, 48 kHz, 192 kbps | iTunes
скриншот  скриншот  скриншот  скриншот  скриншот  

General
Полное имя : F:TorrentUmaVidaSublimeWEBDLRip.avi
Формат : AVI
Формат/Информация : Audio Video Interleave
Профиль формата : OpenDML
Размер файла : 1.46 GiB
Продолжительность : 1 h 45 min
Общий поток : 1 976 kb/s
Программа кодирования : XviD4PSP 6.0 / 54.27.101

Video
Идентификатор : 0
Формат : MPEG-4 Visual
Профиль формата : Advanced Simple@L5
Настройки формата : BVOP2 / Custom Matrix
Параметр BVOP формата : 2
Параметр QPel формата : No
Параметр GMC формата : No warppoints
Параметр матрицы формата : Custom
Идентификатор кодека : XVID
Идентификатор кодека/Подсказка : XviD
Продолжительность : 1 h 45 min
Битрейт : 1 772 kb/s
Ширина : 704 pixels
Высота : 384 pixels
Соотношение сторон : 1.85:1
Частота кадров : 24.000 FPS
Цветовое пространство : YUV
Субдискретизация насыщенности : 4:2:0
Битовая глубина : 8 bits
Тип развёртки : Progressive
Метод сжатия : Lossy
Бит/(Пиксели*Кадры) : 0.273
Размер потока : 1.31 GiB (90%)
Библиотека кодирования : XviD 73

Audio
Идентификатор : 1
Формат : AC-3
Формат/Информация : Audio Coding 3
Идентификатор кодека : 2000
Продолжительность : 1 h 45 min
Вид битрейта : Constant
Битрейт : 192 kb/s
Каналы : 2 channels
Расположение каналов : Front: L R
Частота : 48.0 kHz
Частота кадров : 31.250 FPS (1536 SPF)
Битовая глубина : 16 bits
Метод сжатия : Lossy
Размер потока : 145 MiB (10%)
Выравнивание : Aligned on interleaves
Продолжительность промежутка : 32 ms (0.77 video frame)

pb.wtf



Скачать Безупречная жизнь через торрент https://i107.fastpic.ru/big/2018/1121/60/7391ee8a5582ec3826500e31d2495c60.jpg Скачать фильм Безупречная жизнь через торрент бесплантно в хорошем качестве Описание: Казалось бы, жизнь улыбается Жилу Морейре. У него большой дом, отличный автомобиль и непыльная работа. Однако жена изводит Жила ... 9.4 10 7
Торрент: Зарегистрирован [2018-11-26 04:23] · скачан: 385 раз
Статус: √ проверено
Размер: 1.46 GB
Как cкачать? Как скачать Безупречная жизнь через торрент | qTorrent

% Раздел Тема Автор DL S | L
Видео для КПК и Смартфонов [ 401 MB ] Безупречная жизнь / Uma Vida Sublime [2018 WEB-DLRip КПК] MVO sergey82 Скачать
1 | 0
Фильмы (WEB-DL 720p, 1080p) [ 3.97 GB ] Безупречная жизнь / Uma Vida Sublime [2018 WEB-DL 1080p] MVO bober100 Скачать
1 | 0

28-11-2019 20:33  

Отключить всю рекламу на сайте

    Дорогой пользователь! Огромная просьба, поблагодарите релизера, оцените раздачу и оставьте свои комментарий, если Вы скачали Безупречная жизнь через торрент бесплатно! Внесите свою лепту в развитие PiratBit!
    Комментировать посты могут только пользователи прошедшие не сложную регистрацию
    Показать сообщения:    

    Безупречная жизнь через торрент
    Скачать бесплатно Безупречная жизнь
    Безупречная жизнь скачать торрент
    Безупречная жизнь смотреть онлайн
    Cкачать фильм Безупречная жизнь бесплатно
    Безупречная жизнь скачать торрент в хорошем качестве
    Безупречная жизнь смотреть онлайн бесплатно в хорошем качестве


    Вы не можете начинать темы
    Вы не можете отвечать на сообщения
    Вы не можете редактировать свои сообщения
    Вы не можете удалять свои сообщения
    Вы не можете голосовать в опросах
    Вы не можете прикреплять файлы к сообщениям
    Вы можете скачивать файлы