Лицензия

MVO

1

1 сезон

Лицензия

Лицензия

13

MVO

1 сезон

Deluxe Edition

pack

Рекомендуем

30

Repack

ВАЖНО

ВАЖНО

Ghostwire

RePack

jed

RePack

fifa19

RePack

RDR2

RePack

NEED FOR SPEED™ PAYBACK

RePack

Кинопоиск HD

 Острые козырьки 6 сезон

6 сезон

FAR CRY 6

RePack

Лицензия

MVO

1

1 сезон

1 сезон

Лицензия

  

Купчино / Сезон: 1 / Серии: 1-20 из 20 ( Арменак Назикян, Максим Бриус, Виктор Шкуратов, Алан Дзоциев) [2018, Детектив, криминал, WEB-DLRip]

Купчино через торрент pb.wtf

Размер: 11.63 GB | Добавлен: 3 года 9 мес. назад | Торрент скачан:157 раз
Смотреть онлайн Купчино | Скачать   

26-11-2018 04:56 Купчино Скачать торрент  

Купчино Год выпуска: 2018
Страна: Россия
Жанр: Детектив, криминал
Продолжительность: ~ 00:45:00 серия
Субтитры: отсутствуют

Режиссер: Арменак Назикян, Максим Бриус, Виктор Шкуратов, Алан Дзоциев



В ролях:

Григорий Некрасов, Алексей Кравченко, Денис Пьянов, Иван Решетняк, Роман Агеев, Вячеслав Аркунов, Елизавета Александрова, Алексей Одинг, Дмитрий Лебедев, Алексей Красноцветов, Егор Шмыга, Екатерина Панасюк, Пётр Харченко, Степан Пивкин, Тина Тарусина, Евгений Лямин, Мария Цветкова, Василий Башмаков, Денис Моисеев, Лора Коробских, Александр Клемантович

Описание:

1981 год. Несостоявшегося рок-музыканта Фёдора родители перевозят из Москвы в Ленинград, где родственник устраивает его стажёром в опорный пункт милиции. Отношения между свободолюбивым юным музыкантом и его новым начальником, суровым участковым Васильичем, складываются не сразу. Васильич не воспринимает строптивого подчинённого всерьёз, поручая ему мелкие бытовые задания, а Фёдор мечтает покинуть ненавистную службу.

Качество: WEB-DLRip
Формат: AVI

Видео: XviD, ~ 1500 Кбит/с, 720x400
Аудио: AC3, 2 ch, 192 Кбит/с
скриншот  скриншот  скриншот  скриншот  

Общее
Полное имя : E:\Купчино (2018)..WEB-DLRip.Files-x\01,Купчино (2018)..WEB-DLRip.Files-x.avi
Формат : AVI
Формат/Информация : Audio Video Interleave
Размер файла : 622 Мбайт
Продолжительность : 51 м. 4 с.
Общий поток : 1701 Кбит/сек
Программа кодирования : VirtualDubMod 1.5.10.3 | www.virtualdub-fr.org || (build 2550/release)
Библиотека кодирования : VirtualDubMod build 2550/release

Видео
Идентификатор : 0
Формат : MPEG-4 Visual
Профиль формата : Advanced [email protected]
Настройки формата : BVOP1 / Custom Matrix
Параметр BVOP формата : 1
Параметр QPel формата : Нет
Параметр GMC формата : Без точки перехода
Параметр матрицы формата : Выборочная
Идентификатор кодека : XVID
Идентификатор кодека/Подсказка : XviD
Продолжительность : 51 м. 4 с.
Битрейт : 1500 Кбит/сек
Ширина : 720 пикселей
Высота : 400 пикселей
Соотношение сторон : 16:9
Частота кадров : 25,000 кадров/сек
Цветовое пространство : YUV
Субдискретизация насыщенности : 4:2:0
Битовая глубина : 8 бит
Тип развёртки : Прогрессивная
Метод сжатия : С потерями
Бит/(Пиксели*Кадры) : 0.208
Размер потока : 548 Мбайт (88%)
Библиотека кодирования : XviD 73

Аудио
Идентификатор : 1
Формат : AC-3
Формат/Информация : Audio Coding 3
Идентификатор кодека : 2000
Продолжительность : 51 м. 4 с.
Вид битрейта : Постоянный
Битрейт : 192 Кбит/сек
Каналы : 2 канала
Расположение каналов : Front: L R
Частота : 48,0 КГц
Частота кадров : 31,250 кадров/сек (1536 SPF)
Битовая глубина : 16 бит
Метод сжатия : С потерями
Размер потока : 70,1 Мбайт (11%)
Выравнивание : Разделение по промежуткам
Продолжительность промежутка : 40 мс. (1,00 видеокадр)
Время предзагрузки промежутка : 500 мс.
ServiceKind/String : Complete Main




Скачать Купчино через торрент https://img11.lostpic.net/2018/11/12/c4a4246118d8c6fdfa615940cb28bedf.jpg Скачать, смотреть онлайн Купчино бесплантно в хорошем качестве Описание: 1981 год. Несостоявшегося рок-музыканта Фёдора родители перевозят из Москвы в Ленинград, где родственник устраивает его стажёром ... 9.7 10 6
Торрент: Зарегистрирован [2018-11-26 04:56] · скачан: 157 раз
Статус: √ проверено
Размер: 11.63 GB
Как cкачать? Как скачать Купчино через торрент | UTorrent

% Раздел Тема Автор DL S | L
Наши сериалы [ 25.24 GB ] Купчино / Сезон: 1 / Серии: 1-20 из 20 | | 720p bober100 Скачать
1 | 0
Наши сериалы [ 12.52 GB ] Купчино / Сезон: 1 / Серии: 1-20 из 20 | | SATRip bober100 Скачать
1 | 0
Наши сериалы [ 14.99 GB ] Купчино / Сезон: 1 / Серии: 1-20 из 20 | | WEBRip-AVC bober100 Скачать
1 | 0
Наши сериалы [ 42.2 GB ] Купчино / Сезон: 1 / Серии: 1-20 из 20 | | 1080p bober100 Скачать
1 | 0
Наши сериалы [ 12.85 GB ] Купчино / Серии: 1-20 из 20 | | SATRip-AVC aleksan55 Скачать
1 | 0

28-11-2019 20:33  

Отключить вcю реклaмy на сайте

    Дорогой пользователь! Огромная просьба, поблагодарите релизера, оцените раздачу и оставьте свои комментарий, если Вы скачали Купчино через торрент бесплатно!!
    Комментировать посты могут только пользователи прошедшие не сложную регистрацию
    Показать сообщения:    


    Купчино через торрент
    Скачать бесплатно Купчино
    Купчино скачать торрент
    Купчино смотреть онлайн
    Cкачать фильм Купчино бесплатно
    Купчино скачать торрент в хорошем качестве
    Купчино смотреть онлайн бесплатно в хорошем качестве
    Вы не можете начинать темы
    Вы не можете отвечать на сообщения
    Вы не можете редактировать свои сообщения
    Вы не можете удалять свои сообщения
    Вы не можете голосовать в опросах
    Вы не можете прикреплять файлы к сообщениям
    Вы можете скачивать файлы