Всегда рабочее зеркало просто перед .vidak.icu напиши любое слово или цифру, Пример http://24j.vidak.icu

>

7.4

iTunes

7.4

2 сезон

9.4

1 сезон

1

7.4

2 сезон

7.2

iTunes

6.0

MVO

13

6.1

iTunes

8.3

Пиратка

30

ULTIMATE

pack

9.9

Лицензия

ВАЖНО

ИГРА 18+

pack

7.3

RePack

MK11

7.7

RePack

jed

7.8

RePack

fifa19

8.5

RePack

RDR2

RePack

NEED FOR SPEED™ PAYBACK

1 сезон

9 сезон

Бесстыжие 9 сезон

Все сериалы

все сериалы на PB.wtf

RePack

FAR CRY 5

Anonymous, доброй ночи, мы катастрофически не успеваем собрать деньги на оплату серверов, помогите нам пожалуйста 5,10,15р., для нас важна любая помощь . В качестве благодарности мы отключим Вам всю рекламу на сайте (укажите свой ник в строку Ваше имя)!

×
  
Magnet ссылка

День женщины / I Spit On Your Grave (Мейр Зархи) [1978, ужасы, триллер, BDRip 720p by msltel] AVO pb.wtf

День женщины через торрент pb.wtf

Размер: 5.44 GB | Добавлен: 3 года 1 мес. назад | Торрент скачан:10 раз
Смотреть онлайн День женщины | Скачать    Ребята, помогите собрать деньги на оплату серверов!!!

26-11-2018 04:59 День женщины Скачать торрент  

Название: День женщины
Оригинальное название: I Spit On Your Grave
Год выпуска: 1978
Страна: США
Жанр: ужасы, триллер
Продолжительность: 01:41:18
Перевод: авторский

Режиссер: Мейр Зархи
В ролях: Камилль Китон, Эрон Табор, Ричард Пэйс, Энтони Николс, Гюнтер Климанн, Тэмми Зарки, Терри Зарки, Трэйси Ферранте

О фильме: Молодая писательница Дженнифер приезжает в отдалённую от больших городов местность, чтобы в снятом доме написать новый роман. Чтобы не ездить за продуктами, она делает заказ в магазине с курьерской доставкой. Умственно отсталый парень по имени Мэттью доставляет ей заказ. Вернувшись назад, он рассказывает своим приятелям про Дженнифер. Приятели решиют воспользоваться тем, что девушка вряд ли сможет позвать на помощь и, чтобы позабавиться, пробираются к ней в дом...



Качество: BDRip 720p
Формат: MKV
Видео: MPEG-4 AVC, 6857 Kбит/с, 1280x720, 23.976 кадр/с
Аудио 1: русский, AC3, 192 kbps, 2 ch, 48 kHz [авторский, Антон Алексеев]
Аудио 2: английский, AC3, 640 kbps, 6 ch, 48 kHz [оригинал]
Субтитры 1: русские
Субтитры 2: английские
Главы/чаптеры
Общее
Уникальный идентификатор : 191454554871336676504503117423795678854 (0x9008CE576E8B85498521438A3106AE86)
Полное имя : D:\Video\День женщины.1978.BDRip 720p by msltel.mkv
Формат : Matroska
Версия формата : Version 4
Размер файла : 5,44 Гбайт
Продолжительность : 1 ч. 41 м.
Общий поток : 7691 Кбит/сек
Название фильма : Rip by msltel
Дата кодирования : UTC 2018-11-26 07:08:04
Программа кодирования : mkvmerge v8.2.0 ('World of Adventure') 64bit
Библиотека кодирования : libebml v1.3.1 + libmatroska v1.4.2

Видео
Идентификатор : 1
Формат : AVC
Формат/Информация : Advanced Video Codec
Профиль формата : High@L4.1
Настройки формата : CABAC / 9 Ref Frames
Параметр CABAC формата : Да
Параметр RefFrames формата : 9 кадров
Идентификатор кодека : V_MPEG4/ISO/AVC
Продолжительность : 1 ч. 41 м.
Битрейт : 6857 Кбит/сек
Ширина : 1280 пикселей
Высота : 720 пикселей
Соотношение сторон : 16:9
Режим частоты кадров : Постоянный
Частота кадров : 23,976 (24000/1001) кадра/сек
Цветовое пространство : YUV
Субдискретизация насыщенности : 4:2:0
Битовая глубина : 8 бит
Тип развёртки : Прогрессивная
Бит/(Пиксели*Кадры) : 0.310
Размер потока : 4,85 Гбайт (89%)
Библиотека кодирования : x264 core 155 r2901 7d0ff22
Настройки программы : cabac=1 / ref=9 / deblock=1:-3:-2 / analyse=0x3:0x113 / me=umh / subme=11 / psy=1 / psy_rd=1.00:0.15 / mixed_ref=1 / me_range=32 / chroma_me=1 / trellis=2 / 8x8dct=1 / cqm=0 / deadzone=21,11 / fast_pskip=0 / chroma_qp_offset=-3 / threads=6 / lookahead_threads=1 / sliced_threads=0 / nr=0 / decimate=1 / interlaced=0 / bluray_compat=0 / constrained_intra=0 / bframes=16 / b_pyramid=2 / b_adapt=2 / b_bias=0 / direct=1 / weightb=1 / open_gop=0 / weightp=2 / keyint=230 / keyint_min=23 / scenecut=40 / intra_refresh=0 / rc_lookahead=40 / rc=crf / mbtree=1 / crf=19.4 / qcomp=0.60 / qpmin=0 / qpmax=69 / qpstep=4 / vbv_maxrate=62500 / vbv_bufsize=78125 / crf_max=0.0 / nal_hrd=none / filler=0 / ip_ratio=1.40 / aq=1:1.00
Язык : English
Default : Да
Forced : Нет

Аудио #1
Идентификатор : 2
Формат : AC-3
Формат/Информация : Audio Coding 3
Коммерческое название : Dolby Digital
Идентификатор кодека : A_AC3
Продолжительность : 1 ч. 41 м.
Вид битрейта : Постоянный
Битрейт : 192 Кбит/сек
Каналы : 2 канала
Channel layout : L R
Частота : 48,0 КГц
Частота кадров : 31,250 кадров/сек (1536 SPF)
Битовая глубина : 16 бит
Метод сжатия : С потерями
Размер потока : 139 Мбайт (2%)
Заголовок : Антон Алексеев
Язык : Russian
ServiceKind/String : Complete Main
Default : Да
Forced : Нет

Аудио #2
Идентификатор : 3
Формат : AC-3
Формат/Информация : Audio Coding 3
Коммерческое название : Dolby Digital
Идентификатор кодека : A_AC3
Продолжительность : 1 ч. 41 м.
Вид битрейта : Постоянный
Битрейт : 640 Кбит/сек
Каналы : 6 каналов
Channel layout : L R C LFE Ls Rs
Частота : 48,0 КГц
Частота кадров : 31,250 кадров/сек (1536 SPF)
Битовая глубина : 16 бит
Метод сжатия : С потерями
Размер потока : 464 Мбайт (8%)
Заголовок : original
Язык : English
ServiceKind/String : Complete Main
Default : Нет
Forced : Нет

Текст #1
Идентификатор : 4
Формат : UTF-8
Идентификатор кодека : S_TEXT/UTF8
Идентификатор кодека/Информация : UTF-8 Plain Text
Продолжительность : 1 ч. 38 м.
Битрейт : 31 бит/сек
ElementCount : 488
Размер потока : 23,1 Кбайт (0%)
Заголовок : русские
Язык : Russian
Default : Нет
Forced : Нет

Текст #2
Идентификатор : 5
Формат : UTF-8
Идентификатор кодека : S_TEXT/UTF8
Идентификатор кодека/Информация : UTF-8 Plain Text
Продолжительность : 1 ч. 40 м.
Битрейт : 29 бит/сек
ElementCount : 849
Размер потока : 21,7 Кбайт (0%)
Заголовок : английские
Язык : English
Default : Нет
Forced : Нет

Меню
00:00:00.000 : :Chapter 1
00:03:01.764 : :Chapter 2
00:10:42.183 : :Chapter 3
00:17:03.689 : :Chapter 4
00:23:17.562 : :Chapter 5
00:28:24.244 : :Chapter 6
00:39:02.048 : :Chapter 7
00:52:33.567 : :Chapter 8
01:03:28.763 : :Chapter 9
01:17:56.380 : :Chapter 10
01:30:55.533 : :Chapter 11
01:39:57.282 : :Chapter 12
01:41:17.780 : :Chapter 13
pb.wtf



Скачать День женщины через торрент https://a.radikal.ru/a11/1811/67/567c410e90bf.jpg Скачать, смотреть онлайн День женщины бесплантно в хорошем качестве О фильме: Молодая писательница Дженнифер приезжает в отдалённую от больших городов местность, чтобы в снятом доме написать новый роман. ... 10 10 1
Info! Золотая раздача, скачанное не засчитывается.
Торрент: Зарегистрирован [2018-11-26 04:59] · скачан: 10 раз
Статус: √ проверено
Размер: 5.44 GB
Как cкачать? Как скачать День женщины через торрент | UTorrent

% Раздел Тема Автор DL S | L
Фильмы с авторской озвучкой [ 13.54 GB ] День женщины / I Spit On Your Grave [1978 BDRip 1080p by msltel] AVO msltel Скачать
1 | 0

28-11-2019 20:33  

Отключить всю рекламу на сайте

26-11-2018 05:15 День женщины Скачать торрент  

сюжет один в один я плюю на ваши могилыpb.wtf



26-11-2018 06:29 День женщины Скачать торрент  

Александр1300 писал(а):

сюжет один в один я плюю на ваши могилы

Это он и есть, только 78-го. года:) Добро пожаловать в век ремейков :)pb.wtf



    Дорогой пользователь! Огромная просьба, поблагодарите релизера, оцените раздачу и оставьте свои комментарий, если Вы скачали День женщины через торрент бесплатно!
    Комментировать посты могут только пользователи прошедшие не сложную регистрацию
    Показать сообщения:    

    День женщины через торрент
    Скачать бесплатно День женщины
    День женщины скачать торрент
    День женщины смотреть онлайн
    Cкачать фильм День женщины бесплатно
    День женщины скачать торрент в хорошем качестве
    День женщины смотреть онлайн бесплатно в хорошем качестве


    Вы не можете начинать темы
    Вы не можете отвечать на сообщения
    Вы не можете редактировать свои сообщения
    Вы не можете удалять свои сообщения
    Вы не можете голосовать в опросах
    Вы не можете прикреплять файлы к сообщениям
    Вы можете скачивать файлы