новый адрес
Ссылка на приватное зеркало всего за 1$. Внимание количество ограничено!!!

iTunes

1+1

iTunes

мы

iTunes

1

iTunes

Чернобыль

iTunes

Ральф против интернета

Лицензия

ПШазам

Лицензия

Оно 2

Лицензия

30
pack

Вам бонус

ВАЖНО

!!Акция!!

Alien_RageХит недели

RePack

Resident Evil 21

ИГРА 18+

pack

RePack

jed

!!Акция!!

Alien_Rage

RePack

fifa19

RePack

Assassins Creed: Odyssey

RePack

NEED FOR SPEED™ PAYBACK

3 сезон

9 сезон

Бесстыжие 9 сезон

Все сериалы

все сериалы на PB.wtf

RePack

FAR CRY 5
Ребята, катастрофически не хватает 1900р. для оплаты серверов за Октябрь (всвязи с блокировками трафик упал в 3 раза), 1-2р., выручайте.
  

Дорога грома / Thunder Road (Джим Каммингс) [2018, драма, комедия, WEB-DLRip-AVC] MVO [HDrezka Studio] pb.wtf

Дорога грома через торрент pb.wtf

Раздают: 3 [ 0 KB/s ]
Размер: 1.51 GB | Добавлен: 1 год назад | Торрент скачан:167 раз
Скачать  

26-11-2018 07:09 Дорога грома Скачать торрент  

Дорога грома / Thunder Road Год выпуска: 2018
Страна: США
Жанр: драма, комедия
Продолжительность: 01:30:15
Перевод: Профессиональны (многоголосый) | HDrezka Studio
Субтитры: Английские

Режиссер: Джим Каммингс

rating

В ролях:

Джим Каммингс, Кендал Фарр, Никан Робинсон, Жослин ДеБоэр, Челси Эдмундсон, Мэйкон Блэр, Эмми Леонардс, Билл Уайз, Джордан Рэй Фокс, Фрэнк Мосли

Описание:

Офицер полиции сталкивается с личностным кризисом на фоне развода и смерти матери

Качество: WEB-DLRip-AVC
Формат: MKV

Видео: 1024x554 (1.85:1), 23,976 fps, x264 ~2 287 kbps avg, 0.168 bit/pixel
Аудио#1: 48 kHz, AC3 Dolby Digital, 2 (L,R) ch, ~192.00 kbps avg | RUS [HDRezka Studio]
Аудио#2: 48 kHz, AC3 Dolby Digital, 3/2 (L,C,R,l,r) + LFE ch, ~384.00 kbps avg | ENG
скриншот  скриншот  скриншот  скриншот  

Общее
Уникальный идентификатор : 204725974980645246142402599025098113126 (0x9A04C9DF20B5F3E9EEF8A6A9321C4066)
Полное имя : F:OlLanDGroupThunder.Road.2018.WEB-DLRip(AVC).OlLanDGroup.mkv
Формат : Matroska
Версия формата : Version 4 / Version 2
Размер файла : 1,51 Гбайт
Продолжительность : 1 ч. 30 м.
Общий поток : 2400 Кбит/сек
Название фильма : Thunder.Road.2018 #TorpedoUK#
Дата кодирования : UTC 2018-11-26 05:34:33
Программа кодирования : mkvmerge v25.0.0 ('Prog Noir') 64-bit
Библиотека кодирования : libebml v1.3.6 + libmatroska v1.4.9
Обложка : Yes
Attachments : cover_land.jpg / small_cover.jpg / small_cover_land.jpg / cover.jpg

Видео
Идентификатор : 1
Формат : AVC
Формат/Информация : Advanced Video Codec
Профиль формата : High@L4.1
Параметр CABAC формата : Да
Параметр ReFrames формата : 10 кадров
Идентификатор кодека : V_MPEG4/ISO/AVC
Продолжительность : 1 ч. 30 м.
Битрейт : 1821 Кбит/сек
Ширина : 1024 пикселя
Высота : 508 пикселей
Соотношение сторон : 2,016
Режим частоты кадров : Постоянный
Частота кадров : 23,976 (24000/1001) кадра/сек
Цветовое пространство : YUV
Субдискретизация насыщенности : 4:2:0
Битовая глубина : 8 бит
Тип развёртки : Прогрессивная
Бит/(Пиксели*Кадры) : 0.146
Размер потока : 1,15 Гбайт (76%)
Библиотека кодирования : x264 core 146 r2538 121396c
Настройки программы : cabac=1 / ref=10 / deblock=1:-2:-3 / analyse=0x3:0x113 / me=umh / subme=10 / psy=1 / psy_rd=0.95:0.07 / mixed_ref=1 / me_range=48 / chroma_me=1 / trellis=2 / 8x8dct=1 / cqm=0 / deadzone=21,11 / fast_pskip=1 / chroma_qp_offset=-3 / threads=6 / lookahead_threads=1 / sliced_threads=0 / nr=0 / decimate=1 / interlaced=0 / bluray_compat=0 / constrained_intra=0 / bframes=11 / b_pyramid=2 / b_adapt=2 / b_bias=0 / direct=3 / weightb=1 / open_gop=0 / weightp=2 / keyint=240 / keyint_min=23 / scenecut=40 / intra_refresh=0 / rc_lookahead=40 / rc=2pass / mbtree=0 / bitrate=1821 / ratetol=1.0 / qcomp=0.60 / qpmin=0 / qpmax=69 / qpstep=4 / cplxblur=20.0 / qblur=0.5 / vbv_maxrate=50000 / vbv_bufsize=62500 / nal_hrd=none / filler=0 / ip_ratio=1.40 / pb_ratio=1.30 / aq=1:1.00
Язык : English
Default : Да
Forced : Нет

Аудио #1
Идентификатор : 2
Формат : AC-3
Формат/Информация : Audio Coding 3
Расширение режима : CM (complete main)
Параметр Endianness формата : Big
Идентификатор кодека : A_AC3
Продолжительность : 1 ч. 30 м.
Вид битрейта : Постоянный
Битрейт : 192 Кбит/сек
Каналы : 2 канала
Расположение каналов : Front: L R
Частота : 48,0 КГц
Частота кадров : 31,250 кадров/сек (1536 spf)
Битовая глубина : 16 бит
Метод сжатия : С потерями
Размер потока : 124 Мбайт (8%)
Заголовок : MVO [HDRezka Studio]
Язык : Russian
Default : Да
Forced : Нет

Аудио #2
Идентификатор : 3
Формат : AC-3
Формат/Информация : Audio Coding 3
Расширение режима : CM (complete main)
Параметр Endianness формата : Big
Идентификатор кодека : A_AC3
Продолжительность : 1 ч. 30 м.
Вид битрейта : Постоянный
Битрейт : 384 Кбит/сек
Каналы : 6 каналов
Расположение каналов : Front: L C R, Side: L R, LFE
Частота : 48,0 КГц
Частота кадров : 31,250 кадров/сек (1536 spf)
Битовая глубина : 16 бит
Метод сжатия : С потерями
Размер потока : 248 Мбайт (16%)
Заголовок : [Original]
Язык : English
Default : Нет
Forced : Нет

Текст
Идентификатор : 4
Формат : UTF-8
Идентификатор кодека : S_TEXT/UTF8
Идентификатор кодека/Информация : UTF-8 Plain Text
Продолжительность : 1 ч. 30 м.
Битрейт : 76 бит/сек
Count of elements : 1660
Размер потока : 50,5 Кбайт (0%)
Заголовок : Full
Язык : English
Default : Нет
Forced : Нет

Меню
00:00:00.000 : en:1
00:13:13.000 : en:2
00:21:00.000 : en:3
00:30:07.000 : en:4
00:39:31.000 : en:5
00:50:16.000 : en:6
01:01:44.000 : en:7
01:09:05.000 : en:8
01:18:21.000 : en:9
01:28:43.000 : en:10

pb.wtf



Скачать Дорога грома через торрент http://b.radikal.ru/b38/1811/a5/40dc6989729b.png Скачать фильм Дорога грома через торрент бесплантно в хорошем качестве Описание: Офицер полиции сталкивается с личностным кризисом на фоне развода и смерти ... 8.2 10 5
Info! Золотая раздача, скачанное не засчитывается.
Торрент: Зарегистрирован [2018-11-26 07:09] · скачан: 167 раз
Статус: T временная
Размер: 1.51 GB
Как cкачать? Как скачать Дорога грома через торрент | qTorrent

% Раздел Тема Автор DL S | L
T Фильмы (WEB-DL 720p, 1080p) [ 3.44 GB ] Дорога грома / Thunder Road [2018 WEB-DL 1080p] MVO [HDrezka Studio] bober100 Скачать
2 | 0
T Фильмы 2018 [DVDrip, WEB-DLRip, HDrip] (DUB, MVO) [ 1.46 GB ] Дорога грома / Thunder Road [2018 WEB-DLRip] MVO [HDrezka Studio] bober100 Скачать
2 | 0

28-11-2019 20:33  

Отключить всю рекламу на сайте

    Дорогой пользователь! Огромная просьба, поблагодарите релизера, оцените раздачу и оставьте свои комментарий, если Вы скачали Дорога грома через торрент бесплатно! Внесите свою лепту в развитие PiratBit!
    Комментировать посты могут только пользователи прошедшие не сложную регистрацию
    Показать сообщения:    

    Дорога грома через торрент
    Скачать бесплатно Дорога грома
    Дорога грома скачать торрент
    Дорога грома смотреть онлайн
    Cкачать фильм Дорога грома бесплатно
    Дорога грома скачать торрент в хорошем качестве
    Дорога грома смотреть онлайн бесплатно в хорошем качестве


    Вы не можете начинать темы
    Вы не можете отвечать на сообщения
    Вы не можете редактировать свои сообщения
    Вы не можете удалять свои сообщения
    Вы не можете голосовать в опросах
    Вы не можете прикреплять файлы к сообщениям
    Вы можете скачивать файлы