Всегда рабочее зеркало без VPN и Proxy просто перед .vidak.icu напиши любое слово или цифру, Пример http://mhp6.vidak.icu

MVO

MVO

1 сезон

1

1 сезон

iTunes

1 сезон

13

1 сезон

Deluxe

pack

Рекомендуем

Repack

30

ВАЖНО

RePack

MK11

RePack

jed

RePack

fifa19

RePack

RDR2

RePack

NEED FOR SPEED™ PAYBACK

Кинопоиск HD

6 сезон

 Острые козырьки 6 сезон

Все сериалы

все сериалы на PB.wtf

RePack

FAR CRY 5
  
Magnet ссылка

Побег из Нью-Йорка / Escape from New York (Джон Карпентер) [1981, Фантастика, боевик, триллер, UHD BDRemux 2160p] 5xAVO+2XMVO pb.wtf

Побег из Нью-Йорка через торрент pb.wtf

Размер: 41.63 GB | Добавлен: 3 года 8 мес. назад | Торрент скачан:23 раза
Смотреть онлайн Побег из Нью-Йорка | Скачать    Ребята, помогите собрать деньги на оплату серверов!!!

26-11-2018 10:01 Побег из Нью-Йорка Скачать торрент  

Побег из Нью-Йорка / Escape from New York Год выпуска: 1981
Страна: США, Великобритания
Жанр: Фантастика, боевик, триллер
Продолжительность: 01:39:10
Перевод: Профессиональный (многоголосый), Авторский
Субтитры: Английские (Full, SDH), русские

Режиссер: Джон Карпентер

rating

В ролях:

Курт Расселл, Ли Ван Клиф, Эрнест Боргнайн, Дональд Плезенс, Айзек Хейз, Сизон Хабли, Гарри Дин Стэнтон, Эдриенн Барбо, Том Эткинс, Чарльз Сайферс, Джо Ангер, Фрэнк Даблдей, Джон Стробел, Джон Котрэн, Гэррет Бергфельд, Ричард Козентино, Роберт Джон Меткаф, Джоэль Беннетт, Вик Буллок, Клем Фокс

Описание:

Некогда великий город Нью-Йорк превращен в тюрьму особо строгого режима для самых отъявленных преступников. Все подходы к острову Манхэттен заминированы, вдоль берега воздвигнута огромная стена, а тех, кто все же осмелится бежать, подстерегает целая армия полицейских, немедленно открывающих огонь на поражение. Когда в Нью-Йорке терпит аварию самолет президента США, заключенные берут главу государства в заложники. Освободить его должен крутой парень - «Змей» Плисскен, бывший герой войны, ставший преступником. Если через 24 часа «Змей» вернется с президентом, он получит свободу...

Качество: UHD BDRemux 2160p
Формат: MKV

Видео: HEVC HDR, 50.9 Mбит/с, 3840x2160, 24.000 кадр/с
Аудио#1: Русский (DTS, 6 ch, 1510 Кбит/с) / Профессиональный многоголосый (Киномания)
Аудио#2: Русский (AC3, 2 ch, 192 Кбит/с) / Профессиональный многоголосый (ОРТ)
Аудио#3: Русский (DTS, 6 ch, 1510 Кбит/с) / Авторский (Ю. Сербин)
Аудио#4: Русский (DTS, 6 ch, 1510 Кбит/с) / Авторский (А. Михалев)
Аудио#5: Русский (AC3, 2 ch, 192 Кбит/с) / Авторский (А. Гаврилов)
Аудио#6: Русский (AC3, 2 ch, 192 Кбит/с) / Авторский (В. Горчаков)
Аудио#7: Русский (AC3, 2 ch, 192 Кбит/с) / Авторский (Л. Володарский)
Аудио#8: Английский (DTS-HD MA, 6 ch, 3885 Кбит/с)
скриншот  скриншот  скриншот  скриншот  скриншот  

General
Unique ID : 148372739761438643110303265615950105748 (0x6F9F8CDCC5F5C8373F2E42468623CC94)
Complete name : C:UsersPublicVideosSample VideosFilmyEscape.From.New.York.1981.BDRemux.2160p.HDR.MediaClub.mkv
Format : Matroska
Format version : Version 4
File size : 41.6 GiB
Duration : 1 h 39 min
Overall bit rate mode : Variable
Overall bit rate : 60.1 Mb/s
Encoded date : UTC 2018-11-25 22:23:53
Writing application : mkvmerge v28.2.0 ('The Awakening') 64-bit
Writing library : libebml v1.3.6 + libmatroska v1.4.9
Cover : Yes
Attachments : cover.jpg

Video
ID : 1
Format : HEVC
Format/Info : High Efficiency Video Coding
Commercial name : HDR10
Format profile : Main [email protected]@High
Codec ID : V_MPEGH/ISO/HEVC
Duration : 1 h 39 min
Bit rate : 50.9 Mb/s
Width : 3 840 pixels
Height : 2 160 pixels
Display aspect ratio : 16:9
Frame rate mode : Constant
Frame rate : 24.000 FPS
Color space : YUV
Chroma subsampling : 4:2:0 (Type 2)
Bit depth : 10 bits
Bits/(Pixel*Frame) : 0.256
Stream size : 35.3 GiB (85%)
Title : BDRemux.2160p.HDR by Silverok
Default : Yes
Forced : No
Color range : Limited
Color primaries : BT.2020
Transfer characteristics : PQ
Matrix coefficients : BT.2020 non-constant
Mastering display color primaries : BT.2020
Mastering display luminance : min: 0.0001 cd/m2, max: 1000 cd/m2

Audio #1
ID : 2
Format : DTS
Format/Info : Digital Theater Systems
Codec ID : A_DTS
Duration : 1 h 39 min
Bit rate mode : Constant
Bit rate : 1 510 kb/s
Channel(s) : 6 channels
Channel layout : C L R Ls Rs LFE
Sampling rate : 48.0 kHz
Frame rate : 93.750 FPS (512 SPF)
Bit depth : 24 bits
Compression mode : Lossy
Delay relative to video : 3 s 0 ms
Stream size : 1.04 GiB (3%)
Title : Профессиональный многоголосый (Киномания)
Language : Russian
Default : Yes
Forced : No

Audio #2
ID : 3
Format : AC-3
Format/Info : Audio Coding 3
Commercial name : Dolby Digital
Codec ID : A_AC3
Duration : 1 h 39 min
Bit rate mode : Constant
Bit rate : 192 kb/s
Channel(s) : 2 channels
Channel layout : L R
Sampling rate : 48.0 kHz
Frame rate : 31.250 FPS (1536 SPF)
Bit depth : 16 bits
Compression mode : Lossy
Delay relative to video : 3 s 0 ms
Stream size : 136 MiB (0%)
Title : Профессиональный многоголосый (ОРТ)
Language : Russian
Service kind : Complete Main
Default : No
Forced : No

Audio #3
ID : 4
Format : DTS
Format/Info : Digital Theater Systems
Codec ID : A_DTS
Duration : 1 h 39 min
Bit rate mode : Constant
Bit rate : 1 510 kb/s
Channel(s) : 6 channels
Channel layout : C L R Ls Rs LFE
Sampling rate : 48.0 kHz
Frame rate : 93.750 FPS (512 SPF)
Bit depth : 24 bits
Compression mode : Lossy
Delay relative to video : 3 s 0 ms
Stream size : 1.04 GiB (3%)
Title : Авторский (Ю. Сербин)
Language : Russian
Default : No
Forced : No

Audio #4
ID : 5
Format : DTS
Format/Info : Digital Theater Systems
Codec ID : A_DTS
Duration : 1 h 39 min
Bit rate mode : Constant
Bit rate : 1 510 kb/s
Channel(s) : 6 channels
Channel layout : C L R Ls Rs LFE
Sampling rate : 48.0 kHz
Frame rate : 93.750 FPS (512 SPF)
Bit depth : 24 bits
Compression mode : Lossy
Delay relative to video : 3 s 0 ms
Stream size : 1.04 GiB (3%)
Title : Авторский (А. Михалев)
Language : Russian
Default : No
Forced : No

Audio #5
ID : 6
Format : AC-3
Format/Info : Audio Coding 3
Commercial name : Dolby Digital
Codec ID : A_AC3
Duration : 1 h 39 min
Bit rate mode : Constant
Bit rate : 192 kb/s
Channel(s) : 2 channels
Channel layout : L R
Sampling rate : 48.0 kHz
Frame rate : 31.250 FPS (1536 SPF)
Bit depth : 16 bits
Compression mode : Lossy
Delay relative to video : 3 s 0 ms
Stream size : 136 MiB (0%)
Title : Авторский (А. Гаврилов)
Language : Russian
Service kind : Complete Main
Default : No
Forced : No

Audio #6
ID : 7
Format : AC-3
Format/Info : Audio Coding 3
Commercial name : Dolby Digital
Codec ID : A_AC3
Duration : 1 h 39 min
Bit rate mode : Constant
Bit rate : 192 kb/s
Channel(s) : 2 channels
Channel layout : L R
Sampling rate : 48.0 kHz
Frame rate : 31.250 FPS (1536 SPF)
Bit depth : 16 bits
Compression mode : Lossy
Delay relative to video : 3 s 0 ms
Stream size : 136 MiB (0%)
Title : Авторский (В. Горчаков)
Language : Russian
Service kind : Complete Main
Default : No
Forced : No

Audio #7
ID : 8
Format : AC-3
Format/Info : Audio Coding 3
Commercial name : Dolby Digital
Codec ID : A_AC3
Duration : 1 h 39 min
Bit rate mode : Constant
Bit rate : 192 kb/s
Channel(s) : 2 channels
Channel layout : L R
Sampling rate : 48.0 kHz
Frame rate : 31.250 FPS (1536 SPF)
Bit depth : 16 bits
Compression mode : Lossy
Delay relative to video : 3 s 0 ms
Stream size : 136 MiB (0%)
Title : Авторский (Л. Володарский)
Language : Russian
Service kind : Complete Main
Default : No
Forced : No

Audio #8
ID : 9
Format : DTS XLL
Format/Info : Digital Theater Systems
Commercial name : DTS-HD Master Audio
Codec ID : A_DTS
Duration : 1 h 39 min
Bit rate mode : Variable
Bit rate : 3 885 kb/s
Channel(s) : 6 channels
Channel layout : C L R Ls Rs LFE
Sampling rate : 48.0 kHz
Frame rate : 93.750 FPS (512 SPF)
Bit depth : 24 bits
Compression mode : Lossless
Delay relative to video : 3 s 0 ms
Stream size : 2.69 GiB (6%)
Language : English
Default : No
Forced : No

Text #1
ID : 10
Format : UTF-8
Codec ID : S_TEXT/UTF8
Codec ID/Info : UTF-8 Plain Text
Duration : 1 h 30 min
Bit rate : 35 b/s
Count of elements : 702
Stream size : 23.6 KiB (0%)
Title : Full
Language : English
Default : No
Forced : No

Text #2
ID : 11
Format : UTF-8
Codec ID : S_TEXT/UTF8
Codec ID/Info : UTF-8 Plain Text
Duration : 1 h 34 min
Bit rate : 37 b/s
Count of elements : 775
Stream size : 25.6 KiB (0%)
Title : SDH
Language : English
Default : No
Forced : No

Text #3
ID : 12
Format : UTF-8
Codec ID : S_TEXT/UTF8
Codec ID/Info : UTF-8 Plain Text
Duration : 1 h 33 min
Bit rate : 52 b/s
Count of elements : 584
Stream size : 35.7 KiB (0%)
Title : Full
Language : Russian
Default : No
Forced : No

Menu
00:00:00.000 : en:Main Title
00:02:59.554 : en:Manhattan Island Jail
00:03:59.530 : en:"1997 - Now"
00:07:07.468 : en:Snake Plissken
00:08:53.532 : en:Small Jet In Trouble
00:10:48.564 : en:President In The Pod
00:13:43.489 : en:"You Touch Me, He Dies"
00:16:45.796 : en:"Call Me Snake"
00:20:10.709 : en:Prepared And Betrayed
00:24:11.950 : en:Going In
00:31:58.041 : en:A Friendly Face
00:35:48.062 : en:The Wrong Guy
00:37:29.121 : en:Sewer Rats Call
00:40:17.289 : en:Caught After Dark
00:43:38.324 : en:New York Cabbie
00:46:19.943 : en:Maggie And Brain
00:51:39.638 : en:The Duke's Engines
00:55:19.941 : en:Broadway
00:57:26.317 : en:3rd Car From The End
01:00:50.188 : en:Meet The Duke
01:04:11.222 : en:Target Practice
01:08:34.527 : en:Escape Route
01:09:23.576 : en:The Ransom Note
01:10:13.000 : en:Galdiatory
01:13:56.014 : en:No Dead President
01:15:26.647 : en:Round 2
01:19:22.883 : en:On And Off The Tower
01:21:58.914 : en:The Bridge By Car...
01:25:00.345 : en:...And On Foot
01:27:55.019 : en:Last Ditch
01:31:14.886 : en:A Grateful Nation
01:34:43.678 : en:End Credits

pb.wtf



Скачать Побег из Нью-Йорка через торрент https://c.radikal.ru/c03/1811/85/4380c02ceed7.jpg Скачать, смотреть онлайн Побег из Нью-Йорка бесплантно в хорошем качестве Описание: Некогда великий город Нью-Йорк превращен в тюрьму особо строгого режима для самых отъявленных преступников. Все подходы к острову ... 9.2 10 6
Info! Золотая раздача, скачанное не засчитывается.
Торрент: Зарегистрирован [2018-11-26 10:01] · скачан: 23 раз
Статус: √ проверено
Размер: 41.63 GB
Как cкачать? Как скачать Побег из Нью-Йорка через торрент | UTorrent

% Раздел Тема Автор DL S | L
Ultra HD (UHD: 2K, 4K, 8K) — видео сверхвысокой чёткости [ 57.25 GB ] Побег из Нью-Йорка / Escape from New York [1981 постапокалипсис антиутопия UHD Blu-ray 2160p] 4xMVO + 5xAVO [HDR + Dolby Vision] sheker187 Скачать
1 | 0
Ultra HD (UHD: 2K, 4K, 8K) — видео сверхвысокой чёткости [ 55.64 GB ] Побег из Нью-Йорка / Escape from New York [1981 постапокалипсис антиутопия UHD BDRemux 2160p] 2xMVO + 5xAVO [HDR + Dolby Vision] sheker187 Скачать
1 | 0

28-11-2019 20:33  

Отключить вcю реклaмy на сайте

    Дорогой пользователь! Огромная просьба, поблагодарите релизера, оцените раздачу и оставьте свои комментарий, если Вы скачали Побег из Нью-Йорка через торрент бесплатно!
    Комментировать посты могут только пользователи прошедшие не сложную регистрацию
    Показать сообщения:    

    Побег из Нью-Йорка через торрент
    Скачать бесплатно Побег из Нью-Йорка
    Побег из Нью-Йорка скачать торрент
    Побег из Нью-Йорка смотреть онлайн
    Cкачать фильм Побег из Нью-Йорка бесплатно
    Побег из Нью-Йорка скачать торрент в хорошем качестве
    Побег из Нью-Йорка смотреть онлайн бесплатно в хорошем качестве


    Вы не можете начинать темы
    Вы не можете отвечать на сообщения
    Вы не можете редактировать свои сообщения
    Вы не можете удалять свои сообщения
    Вы не можете голосовать в опросах
    Вы не можете прикреплять файлы к сообщениям
    Вы можете скачивать файлы