2 сезон

iTunes

MVO

1

2 сезон

iTunes

iTunes

1 сезон

RePack

30

Новинка

ВАЖНО

ИГРА 18+

pack

RePack

MK11
pack

Легкие деньги

RePack

jed

RePack

fifa19

RePack

RDR2

RePack

NEED FOR SPEED™ PAYBACK

4 сезон

9 сезон

Бесстыжие 9 сезон

Все сериалы

все сериалы на PB.wtf

RePack

FAR CRY 5

Anonymous, доброй ночи, мы не успеваем собрать деньги на оплату серверов за декабрь и январь, помогите нам пожалуйста в это трудное время. В качестве благодарности мы отключим Вам всю рекламу на сайте (укажите свой ник в строку Ваше имя)!

×
  
Magnet ссылка

Мотылек / Papillon (Михаэль Ноер) [2017, триллер, драма, криминал, детектив, BDRip-AVC] DUB [iTunes] pb.wtf

Мотылек через торрент pb.wtf

Раздают: 1 [ 0 KB/s ]
Размер: 2.93 GB | Добавлен: 2 года 1 мес. назад | Торрент скачан:512 раз
Скачать  

26-11-2018 10:09 Мотылек Скачать торрент  

Мотылек / Papillon
Год выпуска: 2017
Страна: Чехия, Испания, США
Жанр: триллер, драма, криминал, детектив
Продолжительность: 02:13:14
Перевод: Дублированный | iTunes
Субтитры: Английские (Full, SDH)

Режиссер: Михаэль Ноер

rating

В ролях:

Чарли Ханнэм, Рами Малек, Томми Флэнаган, Ив Хьюсон, Роланд Мюллер, Nina Senicar, Майкл Сока, Кристофер Фэйрбэнк, Йорик ван Вагенинген, Йоэль Басман

Описание:

Авантюрист по прозвищу Мотылек получает пожизненный срок в тюрьме для особо опасных преступников - за убийство, которого он не совершал. Когда вокруг враги, а надежда угасает с каждым днём заключения, лишь сила духа может помочь Мотыльку обрести свободу.

Качество: BDRip-AVC
Формат: MKV

Видео: x264, 1032x432, 23.976 fps, ~2314 kbps
Аудио#1: AC3, 48 kHz, 6 ch, ~384.00 kbps avg | русский | iTunes
Аудио#2: AC3, 48 kHz, 6 ch, ~448.00 kbps avg | английский | Оригинал
скриншот  скриншот  скриншот  скриншот  скриншот  

x264 info: frame I:1233 Avg QP:15.17 size: 68114
x264 info: frame P:40550 Avg QP:17.08 size: 25744
x264 info: frame B:149898 Avg QP:19.31 size: 7901
x264 info: consecutive B-frames: 1.9% 2.5% 8.9% 20.5% 17.8% 30.8% 4.6% 3.3% 1.4% 1.0% 1.2% 1.7% 1.6% 1.2% 0.6% 0.3% 0.9%

General
Unique ID : 114336310455939159206849309967035370304 (0x56045F55DABCE58C51095127A42F8B40)
Complete name : Мотылек_(2017)_BDRIP-AVC_[-=DoMiNo=-].mkv
Format : Matroska
Format version : Version 4
File size : 2.93 GiB
Duration : 2 h 13 min
Overall bit rate : 3 147 kb/s
Movie name : Мотылек
Deion : Прозванный Мотыльком из-за татуировки на груди взломщик сейфов Анри совершает несколько попыток побега из тюрьмы, где отбывает пожизненное заключение. Вскоре его отправят на остров Дьявола, окруженный океаном, откуда еще никому не удавалось сбежать.
Encoded date : UTC 2018-11-26 09:10:06
Writing application : mkvmerge v28.2.0 ('The Awakening') 64-bit
Writing library : libebml v1.3.6 + libmatroska v1.4.9
Attachments : poster.jpg
ACTORS : Charlie Hunnam, Rami Malek, Christopher Fairbank, Eve Hewson, Michael Socha, Brian Vernel, Nicholas Asbury, Yorick van Wageningen, Nikola Kent, Roland Møller, Slavko Sobin, Goran Navojec, Joel Basman, Tommy Flanagan, Demetri Goritsas, Cali Nelle, Reshad Strik, Nina Seničar, Ian Beattie
COUNTRY : United States, Czech Republic, Spain
DATE : 2018-07-26
DIRECTOR : Michael Noer
GENRE : драма, приключения
ITUNEXTC : mpaa|R|400|
ORIGINAL_TITLE : Papillon
PRODUCER : Joey McFarland, David Koplan, Ram Bergman, Roger Corbi
PUBLISHER : Red Granite Pictures, Czech Anglo Productions, FishCorb Films, Universal Pictures
RATING : 7.48
WRITER : Aaron Guzikowski

Video
ID : 1
Format : AVC
Format/Info : Advanced Video Codec
Format profile : High@L4.1
Format settings : CABAC / 14 Ref Frames
Format settings, CABAC : Yes
Format settings, ReFrames : 14 frames
Codec ID : V_MPEG4/ISO/AVC
Duration : 2 h 13 min
Bit rate : 2 314 kb/s
Width : 1 032 pixels
Height : 432 pixels
Display aspect ratio : 2.40:1
Frame rate mode : Constant
Frame rate : 23.976 (24000/1001) FPS
Color space : YUV
Chroma subsampling : 4:2:0
Bit depth : 8 bits
Scan type : Progressive
Bits/(Pixel*Frame) : 0.216
Stream size : 2.15 GiB (74%)
Title : RIP_BY_-=DoMiNo=-
Writing library : x264 core 157 r2901M 7d0ff22
Encoding settings : cabac=1 / ref=14 / deblock=1:-3:-3 / analyse=0x3:0x133 / me=umh / subme=11 / psy=1 / psy_rd=1.00:0.00 / mixed_ref=1 / me_range=48 / chroma_me=1 / trellis=2 / 8x8dct=1 / cqm=0 / deadzone=21,11 / fast_pskip=0 / chroma_qp_offset=-2 / threads=6 / lookahead_threads=1 / sliced_threads=0 / nr=0 / decimate=1 / interlaced=0 / bluray_compat=0 / constrained_intra=0 / bframes=16 / b_pyramid=2 / b_adapt=2 / b_bias=0 / direct=1 / weightb=1 / open_gop=0 / weightp=2 / keyint=240 / keyint_min=24 / scenecut=40 / intra_refresh=0 / rc=crf / mbtree=0 / crf=18.0 / qcomp=0.70 / qpmin=0 / qpmax=69 / qpstep=4 / ip_ratio=1.40 / pb_ratio=1.30 / aq=3:1.00
Language : English
Default : Yes
Forced : No

Audio #1
ID : 2
Format : AC-3
Format/Info : Audio Coding 3
Commercial name : Dolby Digital
Codec ID : A_AC3
Duration : 2 h 12 min
Bit rate mode : Constant
Bit rate : 384 kb/s
Channel(s) : 6 channels
Channel layout : L R C LFE Ls Rs
Sampling rate : 48.0 kHz
Frame rate : 31.250 FPS (1536 SPF)
Bit depth : 16 bits
Compression mode : Lossy
Stream size : 365 MiB (12%)
Title : DUB_[iTunes]
Language : Russian
Service kind : Complete Main
Default : Yes
Forced : No

Audio #2
ID : 3
Format : AC-3
Format/Info : Audio Coding 3
Commercial name : Dolby Digital
Codec ID : A_AC3
Duration : 2 h 13 min
Bit rate mode : Constant
Bit rate : 448 kb/s
Channel(s) : 6 channels
Channel layout : L R C LFE Ls Rs
Sampling rate : 48.0 kHz
Frame rate : 31.250 FPS (1536 SPF)
Bit depth : 16 bits
Compression mode : Lossy
Stream size : 427 MiB (14%)
Title : ENG
Language : English
Service kind : Complete Main
Default : No
Forced : No

Text #1
ID : 4
Format : UTF-8
Codec ID : S_TEXT/UTF8
Codec ID/Info : UTF-8 Plain Text
Duration : 2 h 1 min
Bit rate : 28 b/s
Count of elements : 974
Stream size : 25.6 KiB (0%)
Title : Full
Language : English
Default : No
Forced : No

Text #2
ID : 5
Format : UTF-8
Codec ID : S_TEXT/UTF8
Codec ID/Info : UTF-8 Plain Text
Duration : 2 h 12 min
Bit rate : 32 b/s
Count of elements : 1223
Stream size : 31.2 KiB (0%)
Title : SDH
Language : English
Default : No
Forced : No

Menu
00:00:00.000 : :Chapter 01
00:08:16.621 : :Chapter 02
00:16:47.589 : :Chapter 03
00:21:25.909 : :Chapter 04
00:26:31.965 : :Chapter 05
00:30:39.796 : :Chapter 06
00:34:10.798 : :Chapter 07
00:44:51.146 : :Chapter 08
00:52:54.588 : :Chapter 09
00:59:03.665 : :Chapter 10
01:04:12.890 : :Chapter 11
01:12:18.334 : :Chapter 12
01:20:35.372 : :Chapter 13
01:24:08.418 : :Chapter 14
01:35:19.547 : :Chapter 15
01:40:53.047 : :Chapter 16
01:47:10.882 : :Chapter 17
01:57:03.016 : :Chapter 18
02:02:58.913 : :Chapter 19
02:05:57.550 : :Chapter 20

pb.wtf



Скачать Мотылек через торрент http://img11.lostpic.net/2018/11/26/08bf7033399abbeb2b9464f4ef74db97.jpg Скачать фильм Мотылек через торрент бесплантно в хорошем качестве Описание: Авантюрист по прозвищу Мотылек получает пожизненный срок в тюрьме для особо опасных преступников - за убийство, которого он не ... 9 10 16
Торрент: Зарегистрирован [2018-11-26 10:09] · скачан: 512 раз
Статус: √ проверено
Размер: 2.93 GB
Как cкачать? Как скачать Мотылек через торрент | UTorrent

% Раздел Тема Автор DL S | L
Фильмы (HD 720p, 1080p) (48-60 fps) [ 26.89 GB ] Мотылек / Papillon [2017 BDRip 1080p 60fps] - sheker187 Скачать
1 | 0
Фильмы (Blu-ray, BD-Remux, HDDVD) [ 36.96 GB ] Мотылек / Papillon [2017 BD Remux 1080p] [US Transfer] DUB [] bober100 Скачать
1 | 0
Фильмы [HD 720p, 1080p] (Хороший звук DUB, MVO) [ 10 GB ] Мотылек / Papillon [2017 BDRip 720p] DUB [] bober100 Скачать
1 | 0
Фильмы [HD 720p, 1080p] (Хороший звук DUB, MVO) [ 14.96 GB ] Мотылек / Papillon [2017 BDRip 1080p] DUB [] bober100 Скачать
1 | 0
Фильмы 2017 [DVDrip, WEB-DLRip, HDrip] (DUB, MVO) [ 1.46 GB ] Мотылек / Papillon [2017 BDRip] - [] Twi7ter Скачать
2 | 0
Фильмы 2017 [DVDrip, WEB-DLRip, HDrip] (DUB, MVO) [ 2.18 GB ] Мотылек / Papillon [2017 BDRip] - [] Twi7ter Скачать
1 | 0
Фильмы [HD 720p, 1080p] (Хороший звук DUB, MVO) [ 4.73 GB ] Мотылек / Papillon [2017 BDRip 1080p HEVC ()] Мичман37 Скачать
1 | 0

28-11-2019 20:33  

Отключить всю рекламу на сайте

    Дорогой пользователь! Огромная просьба, поблагодарите релизера, оцените раздачу и оставьте свои комментарий, если Вы скачали Мотылек через торрент бесплатно! Внесите свою лепту в развитие PiratBit!
    Комментировать посты могут только пользователи прошедшие не сложную регистрацию
    Показать сообщения:    

    Мотылек через торрент
    Скачать бесплатно Мотылек
    Мотылек скачать торрент
    Мотылек смотреть онлайн
    Cкачать фильм Мотылек бесплатно
    Мотылек скачать торрент в хорошем качестве
    Мотылек смотреть онлайн бесплатно в хорошем качестве


    Вы не можете начинать темы
    Вы не можете отвечать на сообщения
    Вы не можете редактировать свои сообщения
    Вы не можете удалять свои сообщения
    Вы не можете голосовать в опросах
    Вы не можете прикреплять файлы к сообщениям
    Вы можете скачивать файлы