Ссылка на приватное зеркало всего за 1$. Внимание количество ограничено!!!

iTunes

1+1

iTunes

мы

WEB-DL

1

iTunes

Чернобыль

iTunes

Ральф против интернета

Лицензия

ПШазам

Лицензия

Оно 2

Лицензия

30
pack

Вам бонус

ВАЖНО

!!Акция!!

Alien_RageХит недели

RePack

Resident Evil 21

ИГРА 18+

pack

RePack

jed

!!Акция!!

Alien_Rage

RePack

fifa19

RePack

Assassins Creed: Odyssey

RePack

NEED FOR SPEED™ PAYBACK

3 сезон

9 сезон

Бесстыжие 9 сезон

Все сериалы

все сериалы на PB.wtf

RePack

FAR CRY 5
Ребята, катастрофически не хватает 1900р. для оплаты серверов за Октябрь (всвязи с блокировками трафик упал в 3 раза), 1-2р., выручайте.
  

Последний император / The Last Emperor (Бернардо Бертолуччи) [1987, драма, биография, история, BDRip 1080p] [Extended Cut] MVO + Sub (Rus, Eng) + Original Eng pb.wtf

Последний император через торрент pb.wtf

Размер: 27.31 GB | Добавлен: 1 год назад | Торрент скачан:9 раз
Скачать  

26-11-2018 18:40 Последний император Скачать торрент  

Последний император / The Last Emperor
Extended Cut
Страна: Франция, Великобритания, Италия, Китай
Студия: Hemdale Film, Yanco Films Limited, TAO Film
Жанр: Драма, биография, история
Год выпуска: 1987
Продолжительность: 03:38:34

Перевод: Профессиональный (многоголосый закадровый) Cinema Prestige
Субтитры: русские, английские
Оригинальная аудиодорожка: английский

Режиссер: Бернардо Бертолуччи / Bernardo Bertolucci

В ролях: Джон Лоун, Джоан Чен, Питер О`Тул, Ин Жочэн, Виктор Вонг, Деннис Дун, Рюити Сакамото, Мэгги Хань, Рик Янг, Вивиан Ву, Кэри-Хироюки Тагава, Джейд Го, Фумихико Икэда, Тао Ву, Гуанг Фэн, Элвин Райли III, Лиза Лу, Хидэо Такамацу, Хайме Тачибана, Бэзил Пао, Генри О, Кайгэ Чэнь, Донг Лианг, Константин Грегори, Ли Ю, Джан Ву, Ши Лианг, Шу Чен, Чжан Дасин, Жуйган цу, Йуан Джин, Акира Икута, Мэттью Спендер

Описание: Он был повелителем миллиарда человек. Ему было уготовано «десять тысяч лет счастья». Но мир древних традиций рухнул под напором века перемен... В 1908 году трехлетний Пу И, последний из династии, тысячи лет правившей «Поднебесной империей», был возведен на Трон Дракона. К императору-ребенку относятся как к божеству. Он может делать все, кроме одного - покидать пределы своего дворца. В Запретный город не долетают «ветры перемен», сотрясающие мир за его стенами. Но жизнь последнего императора Китая оказывается частью всей великой истории XX века.

rating

Качество: BDRip 1080p
Формат: MKV

Видео: MPEG-4 AVC, 1920x816, 23.976 fps, 16.0 Mbps
Аудио 1: Russian: 48 kHz, AC3, 5.1 ch, 384 kbps |Cinema Prestige
Аудио 2: English: 48 kHz, DTS, 5.1 ch, 1536 kbps
Формат субтитров: softsub (SRT)
Формат : Matroska
Версия формата : Version 2
Размер файла : 27,3 Гбайт
Продолжительность : 3 ч. 38 м.
Общий поток : 17,9 Мбит/сек
Название фильма : The.Last.Emperor.1987.Extended.Cut.1080p.BluRay.[zzZGVvv]
Дата кодирования : UTC 2018-05-17 05:58:35
Программа кодирования : mkvmerge v5.8.0 ('No Sleep / Pillow') built on Sep 2 2012 15:37:04
Библиотека кодирования : libebml v1.2.3 + libmatroska v1.3.0
Attachements : cover.jpg

Видео
Идентификатор : 1
Формат : AVC
Формат/Информация : Advanced Video Codec
Профиль формата : High@L4.1
Параметр CABAC формата : Да
Параметр ReFrames формата : 5 кадров
Идентификатор кодека : V_MPEG4/ISO/AVC
Продолжительность : 3 ч. 38 м.
Битрейт : 16,0 Мбит/сек
Ширина : 1920 пикселей
Высота : 816 пикселей
Соотношение сторон : 2,35:1
Режим частоты кадров : Постоянный
Частота кадров : 23,976 кадра/сек
Цветовое пространство : YUV
Субдискретизация насыщенности : 4:2:0
Битовая глубина : 8 бит
Тип развёртки : Прогрессивная
Бит/(Пиксели*Кадры) : 0.426
Размер потока : 23,9 Гбайт (87%)
Заголовок : The.Last.Emperor.1987.Extended.Cut.1080p.BluRay
Библиотека кодирования : x264 core 148 r2744+55 950084e t_mod_Custom [8-bit@all X86_64]
Настройки программы : cabac=1 / ref=5 / deblock=1:-3:-3 / analyse=0x3:0x133 / me=umh / subme=10 / psy=1 / fade_compensate=0.00 / psy_rd=1.10:0.05 / mixed_ref=1 / me_range=32 / chroma_me=1 / trellis=2 / 8x8dct=1 / cqm=0 / deadzone=21,11 / fast_pskip=1 / chroma_qp_offset=-3 / threads=6 / lookahead_threads=1 / sliced_threads=0 / nr=0 / decimate=1 / interlaced=0 / bluray_compat=0 / constrained_intra=0 / fgo=0 / bframes=8 / b_pyramid=2 / b_adapt=2 / b_bias=0 / direct=3 / weightb=1 / open_gop=0 / weightp=2 / keyint=250 / keyint_min=23 / scenecut=40 / intra_refresh=0 / rc=2pass / mbtree=0 / bitrate=16000 / ratetol=1.0 / qcomp=0.60 / qpmin=0:0:0 / qpmax=69:69:69 / qpstep=4 / cplxblur=20.0 / qblur=0.5 / ip_ratio=1.30 / pb_ratio=1.20 / aq=3:0.65 / aq-sensitivity=10.00 / aq-factor=1.00:1.00:1.00 / aq2=0 / aq3=0
Язык : English
Default : Да
Forced : Нет
Цветовой диапазон : Limited
Коэффициенты матрицы : BT.709

Аудио #1
Идентификатор : 2
Формат : AC-3
Формат/Информация : Audio Coding 3
Расширение режима : CM (complete main)
Параметр Endianness формата : Big
Режим смешивания : Header stripping
Идентификатор кодека : A_AC3
Продолжительность : 3 ч. 38 м.
Вид битрейта : Постоянный
Битрейт : 384 Кбит/сек
Каналы : 6 каналов
Расположение каналов : Front: L C R, Side: L R, LFE
Частота : 48,0 КГц
Метод сжатия : С потерями
Размер потока : 600 Мбайт (2%)
Заголовок : MVO (Cinema Prestige)
Язык : Russian
Default : Да
Forced : Нет

Аудио #2
Идентификатор : 3
Формат : DTS
Формат/Информация : Digital Theater Systems
Режим : 16
Параметр Endianness формата : Big
Режим смешивания : Header stripping
Идентификатор кодека : A_DTS
Продолжительность : 3 ч. 38 м.
Вид битрейта : Постоянный
Битрейт : 1509 Кбит/сек
Каналы : 6 каналов
Расположение каналов : Front: L C R, Side: L R, LFE
Частота : 48,0 КГц
Битовая глубина : 24 бит
Метод сжатия : С потерями
Размер потока : 2,30 Гбайт (8%)
Заголовок : Original
Язык : English
Default : Нет
Forced : Нет

Текст #1
Идентификатор : 4
Формат : UTF-8
Идентификатор кодека : S_TEXT/UTF8
Идентификатор кодека/Информация : UTF-8 Plain Text
Язык : Russian
Default : Нет
Forced : Нет

Текст #2
Идентификатор : 5
Формат : UTF-8
Идентификатор кодека : S_TEXT/UTF8
Идентификатор кодека/Информация : UTF-8 Plain Text
Язык : English
Default : Нет
Forced : Нет

Меню
00:00:00.000 : en:00:00:00.000
00:09:58.346 : en:00:09:58.346
00:20:07.623 : en:00:20:07.623
00:28:58.111 : en:00:28:58.111
00:40:21.753 : en:00:40:21.753
00:51:57.989 : en:00:51:57.989
01:01:13.420 : en:01:01:13.420
01:06:10.507 : en:01:06:10.507
01:13:23.858 : en:01:13:23.858
01:26:49.412 : en:01:26:49.412
01:41:10.814 : en:01:41:10.814
01:49:21.764 : en:01:49:21.764
01:57:35.046 : en:01:57:35.046
02:05:32.149 : en:02:05:32.149
02:12:52.087 : en:02:12:52.087
02:22:19.197 : en:02:22:19.197
02:30:05.663 : en:02:30:05.663
02:36:53.068 : en:02:36:53.068
02:46:19.761 : en:02:46:19.761
02:55:52.290 : en:02:55:52.290
03:07:08.843 : en:03:07:08.843
03:18:44.828 : en:03:18:44.828
03:22:46.444 : en:03:22:46.444
03:34:10.171 : en:03:34:10.171
скриншот   скриншот   скриншот   скриншот  
pb.wtf



Скачать Последний император через торрент http://pic1.kartinco.top/images/11/bi8c2.jpg Скачать фильм Последний император через торрент бесплантно в хорошем качестве Описание: Он был повелителем миллиарда человек. Ему было уготовано «десять тысяч лет счастья». Но мир древних традиций рухнул под напором ... 10 10 1
Info! Золотая раздача, скачанное не засчитывается.
Торрент: Зарегистрирован [2018-11-26 18:40] · скачан: 9 раз
Статус: √ проверено
Размер: 27.31 GB
Как cкачать? Как скачать Последний император через торрент | qTorrent

28-11-2019 20:33  

Отключить всю рекламу на сайте

    Дорогой пользователь! Огромная просьба, поблагодарите релизера, оцените раздачу и оставьте свои комментарий, если Вы скачали Последний император через торрент бесплатно! Внесите свою лепту в развитие PiratBit!
    Комментировать посты могут только пользователи прошедшие не сложную регистрацию
    Показать сообщения:    

    Последний император через торрент
    Скачать бесплатно Последний император
    Последний император скачать торрент
    Последний император смотреть онлайн
    Cкачать фильм Последний император бесплатно
    Последний император скачать торрент в хорошем качестве
    Последний император смотреть онлайн бесплатно в хорошем качестве


    Вы не можете начинать темы
    Вы не можете отвечать на сообщения
    Вы не можете редактировать свои сообщения
    Вы не можете удалять свои сообщения
    Вы не можете голосовать в опросах
    Вы не можете прикреплять файлы к сообщениям
    Вы можете скачивать файлы