Ссылка на приватное зеркало нашего сайта всего за 1$. Внимание количество ограничено!!!

2 сезон

iTunes

1 сезон

1

2 сезон

2 сезон

iTunes

1 сезон

RePack

30

Ultimate

ВАЖНО

ИГРА 18+

pack

RePack

MK11
pack

Забери бонус

RePack

jed

!!Акция!!

Alien_Rage

RePack

fifa19

RePack

Assassins Creed: Odyssey

RePack

NEED FOR SPEED™ PAYBACK

4 сезон

9 сезон

Бесстыжие 9 сезон

Все сериалы

все сериалы на PB.wtf

RePack

FAR CRY 5
  

Ангелы и бриллианты / Карибский гром / Angeli & diamanti / Серии: 1-3 из 3 (Раффаэле Мертес / Raffaele Mertes) [2011, Боевик, комедия, WEB-DL 1080p] [MVO] (Eurochannel) pb.wtf

Ангелы и бриллианты через торрент pb.wtf

Размер: 28.36 GB | Добавлен: 2 года назад | Торрент скачан:4 раза
Скачать  

26-11-2018 19:48 Ангелы и бриллианты Скачать торрент  

Ангелы и бриллианты / Карибский гром / Angeli & diamanti Год выпуска: 2011
Страна: Италия
Жанр: Боевик, комедия
Продолжительность: 3х~ 01:46:00
Перевод: Профессиональный (многоголосый закадровый) Eurochannel

Режиссёр: Раффаэле Мертес / Raffaele Mertes

В ролях: Виттория Бельведер, Джулио Мария Беррути, Якопо Каллин, Камилла Ферранти, Андрес Соса Гонсалес. Майкл Реале, Омар Крус Сото, Мартина Стелла, Карлос Гэбриел Родригез

Описание: Самое крупное ограбление в Европе происходит в Италии. За ним стоит известный преступник, а целью его становятся бриллианты. Украденная добыча обнаруживается в Пуэрто-Рико, в связи с чем туда отправляется спецотряд из трех неотразимых полицейских, цель которых – вернуть камни и отправить вора за решетку. Мафия, Интерпол и судьба итальянского майора полиции поставлены на карту.

ratingскриншот  
Сэмпл: http://multi-up.com/1215727

Релиз - miha2154

Качество: WEB-DL 1080p
Формат: MKV
Видео: AVC, 1920x1080 (16:9), 29.970 fps, 12.3 Mbps (0.198 bit/pixel)
Аудио 1: AC-3, 48.0 KHz, 2 ch, 192 Kbps, CBR - русский
Аудио 2: E-AC-3, 48.0 KHz, 2 ch, 224 Kbps, CBR - итальянский
Субтитры: softsub, ass, srt - русские
Общее
Уникальный идентификатор : 247187206996388383866540685427469667677 (0xB9F6863DEC70976C8452DDA88D374D5D)
Полное имя : F:\Angeli&diamanti.2011.E01.1080p.WEB-DL.DD+2.0.H.264-SbR.mkv
Формат : Matroska
Версия формата : Version 2
Размер файла : 9,74 Гбайт
Продолжительность : 1 ч. 47 м.
Режим общего битрейта : Переменный
Общий поток : 13,0 Мбит/сек
Название фильма : Ангелы и бриллианты (Карибский гром). Сезон 1 / Angeli & diamanti. Stagioni 1 (2011)
Дата кодирования : UTC 2018-11-23 09:56:02
Программа кодирования : mkvmerge v8.2.0 ('World of Adventure') 64bit
Библиотека кодирования : libebml v1.3.1 + libmatroska v1.4.2

Видео
Идентификатор : 1
Формат : AVC
Формат/Информация : Advanced Video Codec
Профиль формата : High@L4
Настройки формата : CABAC / 4 Ref Frames
Параметр CABAC формата : Да
Параметр RefFrames формата : 4 кадра
Идентификатор кодека : V_MPEG4/ISO/AVC
Продолжительность : 1 ч. 47 м.
Вид битрейта : Переменный
Битрейт : 12,3 Мбит/сек
Максимальный битрейт : 15,0 Мбит/сек
Ширина : 1920 пикселей
Высота : 1080 пикселей
Соотношение сторон : 16:9
Режим частоты кадров : Постоянный
Частота кадров : 29,970 (30000/1001) кадров/сек
Цветовое пространство : YUV
Субдискретизация насыщенности : 4:2:0
Битовая глубина : 8 бит
Тип развёртки : Прогрессивная
Бит/(Пиксели*Кадры) : 0.198
Размер потока : 9,24 Гбайт (95%)
Язык : Italian
Default : Да
Forced : Нет
Цветовой диапазон : Limited
Основные цвета : BT.709
Характеристики трансфера : BT.709
Коэффициенты матрицы : BT.709

Аудио #1
Идентификатор : 2
Формат : AC-3
Формат/Информация : Audio Coding 3
Коммерческое название : Dolby Digital
Идентификатор кодека : A_AC3
Продолжительность : 1 ч. 47 м.
Вид битрейта : Постоянный
Битрейт : 192 Кбит/сек
Каналы : 2 канала
Channel layout : L R
Частота : 48,0 КГц
Частота кадров : 31,250 кадров/сек (1536 SPF)
Битовая глубина : 16 бит
Метод сжатия : С потерями
Размер потока : 147 Мбайт (1%)
Заголовок : Профессиональный (многоголосый закадровый) Eurochannel
Язык : Russian
ServiceKind/String : Complete Main
Default : Да
Forced : Нет

Аудио #2
Идентификатор : 3
Формат : E-AC-3
Формат/Информация : Enhanced AC-3
Коммерческое название : Dolby Digital Plus
Идентификатор кодека : A_EAC3
Продолжительность : 1 ч. 47 м.
Вид битрейта : Постоянный
Битрейт : 224 Кбит/сек
Каналы : 2 канала
Channel layout : L R
Частота : 48,0 КГц
Частота кадров : 31,250 кадров/сек (1536 SPF)
Метод сжатия : С потерями
Размер потока : 172 Мбайт (2%)
Язык : Italian
ServiceKind/String : Complete Main
Default : Нет
Forced : Нет

Текст #1
Идентификатор : 4
Формат : ASS
Идентификатор кодека : S_TEXT/ASS
Идентификатор кодека/Информация : Advanced Sub Station Alpha
Метод сжатия : Без потерь
Язык : Russian
Default : Нет
Forced : Нет

Текст #2
Идентификатор : 5
Формат : UTF-8
Идентификатор кодека : S_TEXT/UTF8
Идентификатор кодека/Информация : UTF-8 Plain Text
Язык : Russian
Default : Нет
Forced : Нет
скриншот  скриншот  скриншот  
pb.wtf



Скачать Ангелы и бриллианты через торрент http://i98.fastpic.ru/big/2018/1117/4e/51aa5a226008bcb7ab126c43ca3f4d4e.jpg Скачать фильм Ангелы и бриллианты через торрент бесплантно в хорошем качестве Описание: Самое крупное ограбление в Европе происходит в Италии. За ним стоит известный преступник, а целью его становятся бриллианты. ... 5 10 1
Торрент: Зарегистрирован [2018-11-26 19:48] · скачан: 4 раз
Статус: √ проверено
Размер: 28.36 GB
Как cкачать? Как скачать Ангелы и бриллианты через торрент | qTorrent

28-11-2019 20:33  

Отключить всю рекламу на сайте

    Дорогой пользователь! Огромная просьба, поблагодарите релизера, оцените раздачу и оставьте свои комментарий, если Вы скачали Ангелы и бриллианты через торрент бесплатно! Внесите свою лепту в развитие PiratBit!
    Комментировать посты могут только пользователи прошедшие не сложную регистрацию
    Показать сообщения:    

    Ангелы и бриллианты через торрент
    Скачать бесплатно Ангелы и бриллианты
    Ангелы и бриллианты скачать торрент
    Ангелы и бриллианты смотреть онлайн
    Cкачать фильм Ангелы и бриллианты бесплатно
    Ангелы и бриллианты скачать торрент в хорошем качестве
    Ангелы и бриллианты смотреть онлайн бесплатно в хорошем качестве


    Вы не можете начинать темы
    Вы не можете отвечать на сообщения
    Вы не можете редактировать свои сообщения
    Вы не можете удалять свои сообщения
    Вы не можете голосовать в опросах
    Вы не можете прикреплять файлы к сообщениям
    Вы можете скачивать файлы