Доктор Стрэндж

Лицензия

Добыча

Дубляж

Дом дракона

1 сезон

Тор

Дубляж

В эфире

Дубляж

Там, где раки поют

MVO

Властелин колец

1 сезон

Deluxe

pack

Рекомендуем

30

Пиратка

ВАЖНО

ВАЖНО

Ghostwire

Пиратка

jed

RePack

nioh2

RePack

RDR2

RePack

NEED FOR SPEED™ PAYBACK

RePack

скачать торрент

Кинопоиск HD

Острые козырьки 6 сезон

6 сезон

FAR CRY 6

RePack

скачать торрент

Лицензия

скачать торрент

MVO

1

1 сезон

скачать торрент

1 сезон

скачать торрент

Лицензия

  

Медное солнце / Сезон: 1 / Серии: 2 из 2 (Карен Оганесян) [2018, Драма, военный, WEBRip 1080p]

Медное солнце через торрент pb.wtf

Размер: 11.2 GB | Добавлен: 4 года назад | Торрент скачан:103 раза
Смотреть онлайн | Скачать   

26-11-2018 23:00 Медное солнце Скачать торрент  

Медное солнце
Оригинальное название: Медное солнце (Юбилейный встречный)
Год выпуска: 2018
Жанр: Драма, военный
Выпущено: Россия, МАРС Медиа, КАРГО по заказу телеканала НТВ
Продолжительность: 2 x ~ 02:17:00
Перевод: Оригинал (Русский)
Режиссер:
Карен Оганесян
В ролях:
Владимир Машков, Микаэл Джанибекян, Ольга Медынич, Алексей Шевченков, Максим Емельянов, Сабина Ахмедова, Зарина Мухитдинова, Олег Галахов, Владимир Нисков
Описание:
1991-й год. Некогда единый и могучий Советский Союз раскалывается изнутри. Жители удалённого кишлака в Средней Азии с тревогой узнают новости о волнениях, прокатывающихся по стране. Но ведь здесь местные давно живут бок о бок с русскими. Герои нашей истории — музыканты полкового оркестра, отработавшие на свадьбе в дальнем ауле и вернувшиеся в часть к пустым баракам. Полк получил срочный приказ о передислокации и ушёл. В это время в горах появился отряд боевиков, перешедших границу для того, чтобы начать в стране гражданскую войну. И вместо того, чтобы догонять полк, музыканты, половина из которых ещё совсем мальчишки, остаются для защиты мира в посёлке. Это история про проверку на человечность, силу духа, умение устоять против волны ненависти и гнева, про любовь и, конечно, про музыку, которая побеждает там, где автоматы и танки бессильны.
Качество: WEBRip (1080p)
Формат: MKV
Видео: MPEG-4 AVC, ~ 6000 Кбит/с, 1920x1080, 25 Кадр/с
Аудио: AC3, 2 ch, 192 Кбит/с
Общее
Уникальный идентификатор : 244576379740599464741746181226712506181 (0xB7FFB28515E6F91DA127A02569B79F45)
Полное имя : D:\Mednoe.solnce.2018.WEB-DL.(1080p).Nikolspup\Mednoe.solnce.(01.Film.iz.02).2018.WEB-DL.(1080p).Nikolspup.mkv
Формат : Matroska
Версия формата : Version 4 / Version 2
Размер файла : 5,91 Гбайт
Продолжительность : 2 ч. 17 м.
Режим общего битрейта : Постоянный
Общий поток : 6177 Кбит/сек
Дата кодирования : UTC 2018-11-26 21:03:42
Программа кодирования : mkvmerge v7.8.0 ('River Man') 32bit built on Mar 27 2015 16:18:02
Библиотека кодирования : libebml v1.3.1 + libmatroska v1.4.2

Видео
Идентификатор : 1
Формат : AVC
Формат/Информация : Advanced Video Codec
Профиль формата : [email protected]
Настройки формата : 2 Ref Frames
Параметр CABAC формата : Нет
Параметр RefFrames формата : 2 кадра
Идентификатор кодека : V_MPEG4/ISO/AVC
Продолжительность : 2 ч. 17 м.
Вид битрейта : Постоянный
Битрейт : 6000 Кбит/сек
Ширина : 1920 пикселей
Высота : 1080 пикселей
Соотношение сторон : 16:9
Режим частоты кадров : Постоянный
Частота кадров : 25,000 кадров/сек
Стандарт вещания : PAL
Цветовое пространство : YUV
Субдискретизация насыщенности : 4:2:0
Битовая глубина : 8 бит
Тип развёртки : Прогрессивная
Бит/(Пиксели*Кадры) : 0.116
Размер потока : 5,61 Гбайт (95%)
Default : Да
Forced : Нет
Цветовой диапазон : Limited
Основные цвета : BT.709
Характеристики трансфера : BT.709
Коэффициенты матрицы : BT.709

Аудио
Идентификатор : 2
Формат : AC-3
Формат/Информация : Audio Coding 3
Идентификатор кодека : A_AC3
Продолжительность : 2 ч. 17 м.
Вид битрейта : Постоянный
Битрейт : 192 Кбит/сек
Каналы : 2 канала
Расположение каналов : Front: L R
Частота : 48,0 КГц
Частота кадров : 31,250 кадров/сек (1536 SPF)
Битовая глубина : 16 бит
Метод сжатия : С потерями
Размер потока : 188 Мбайт (3%)
Язык : Russian
ServiceKind/String : Complete Main
Default : Да
Forced : Нет
Внимание! Раздача ведётся путём добавления новых серий; при каждом добавлении создётся новый торрент. Чтобы начать докачку новой серии, пользователям необходимо сделать следующее:
  • Остановить скачивание,
  • Удалить старый торрент у себя из клиента (старые серии удалять не надо),
  • Скачать новый торрент и запустить его у себя в клиенте вместо старого, при этом указать клиенту путь в старую папку куда и должно происходить скачивание новых серий.
Ваш клиент при этом должен произвести хеширование (проверку) старой папки (если не производит сам - помогите ему сделать это), и будет докачивать только те серии которых у вас ещё нет. Старые серии при этом не удаляются, а продолжают раздаваться!

Eсли вы уже удалили старые серии, то предотвратить повторную закачку старых серий можно, отжав галочку в соответсвующих местах при запуске нового торрента. По возможности, желательно не удалять старые серии как можно дольше чтобы релизёр не столько продолжал раздавать старые серии, а смог сконцентрироваться на новых.
скриншот   скриншот   скриншот   скриншот  



Скачать Медное солнце через торрент https://pic1.kartinco.top/images/11/efyh4.jpg Скачать, смотреть онлайн Медное солнце бесплантно в хорошем качестве Описание: 1991-й год. Некогда единый и могучий Советский Союз раскалывается изнутри. Жители удалённого кишлака в Средней Азии с тревогой ... 10 10 3
× Info от релизера! Добавлена 2 серия
Торрент: Зарегистрирован [2018-11-27 21:50] · скачан: 103 раз
Статус: √ проверено
Размер: 11.2 GB
Как cкачать? Как скачать Медное солнце через торрент | UTorrent

% Раздел Тема Автор DL S | L
Наши сериалы [ 3.09 GB ] Медное солнце / Юбилейный встречный / Серии: 1-2 из 2 | | WEBRip bober100 Скачать
2 | 0
T Наши сериалы [ 3.55 GB ] Медное солнце / Серии 1-6 из 6 | | SATRip oleg8 Скачать
1 | 0



Последний раз редактировалось: Тиран (2018-11-27 21:50), всего редактировалось 1 раз

28-11-2019 20:33  


Отключить вcю реклaмy на сайте, в т.ч. и в плеере онлайн просмотра!

    Дорогой пользователь! Огромная просьба, поблагодарите релизера, оцените раздачу и оставьте свои комментарий, если Вы скачали Медное солнце через торрент бесплатно!!
    Комментировать посты могут только пользователи прошедшие не сложную регистрацию
    Показать сообщения:    


    Медное солнце через торрент
    Скачать бесплатно Медное солнце
    Медное солнце скачать торрент
    Медное солнце смотреть онлайн
    Cкачать фильм Медное солнце бесплатно
    Медное солнце скачать торрент в хорошем качестве
    Медное солнце смотреть онлайн бесплатно в хорошем качестве
    Вы не можете начинать темы
    Вы не можете отвечать на сообщения
    Вы не можете редактировать свои сообщения
    Вы не можете удалять свои сообщения
    Вы не можете голосовать в опросах
    Вы не можете прикреплять файлы к сообщениям
    Вы можете скачивать файлы
    Медное солнце / Сезон: 1 / Серии: 2 из 2 [2018, Драма, военный, WEBRip 1080p] смотреть онлайн, скачать торрент picoco.icu