Ссылка на приватное зеркало нашего сайта всего за 1$. Внимание количество ограничено!!!

2 сезон

iTunes

1 сезон

1

2 сезон

2 сезон

iTunes

1 сезон

RePack

30

Ultimate

ВАЖНО

ИГРА 18+

pack

RePack

MK11
pack

Забери бонус

RePack

jed

!!Акция!!

Alien_Rage

RePack

fifa19

RePack

Assassins Creed: Odyssey

RePack

NEED FOR SPEED™ PAYBACK

4 сезон

9 сезон

Бесстыжие 9 сезон

Все сериалы

все сериалы на PB.wtf

RePack

FAR CRY 5
  

Хищник / The Predator (Шейн Блэк) [2018, ужасы, фантастика, боевик, триллер, приключения, WEB-DL 1080p] MVO [HDrezka Studio] pb.wtf

Скачать  

27-11-2018 07:49 Хищник Скачать торрент  

Хищник / The Predator«You'll never see him coming»
Год выпуска: 2018
Страна: США, Канада
Жанр: ужасы, фантастика, боевик, триллер, приключения
Продолжительность: 01:46:48
Перевод: Профессиональный (многоголосый, закадровый) | [HDRezka Studio]
Субтитры: Английские (полные)
Реклама: Отсутствует
Режиссер: Шейн Блэк
В ролях:

Бойд Холбрук (Quinn McKenna), Треванте Роудс (Nebraska Williams), Джейкоб Тремблей (Rory McKenna), Кигэн-Майкл Ки (Coyle), Оливия Манн (Casey Bracket), Стерлинг К. Браун (Traeger), Томас Джейн (Baxley), Алфи Аллен (Lynch), Августо Агилера (Nettles), Джейк Бьюзи (Keyes), Ивонн Страховски (Emily), Брайан А. Принц (Predator)
Описание:
Главный герой, бывший морпех, обнаруживает злобную инопланетную расу на Земле, но никто не верит ему, что эти твари существуют. Его сын-аутист, которого все обижают в школе, становится ключевой фигурой в схватке с Хищниками, поскольку мальчик умеет невероятно быстро учить языки и, судя по всему, сможет понять пришельцев.
Рейтинг:

MPAA: R - Лицам до 17 лет обязательно присутствие взрослого
Качество: WEB-DL 1080p
Формат: MKV
Видео: 1920x802 (2.40:1), 23,976 fps, x264 ~4 556 kbps avg, 0.123 bit/pixel
Аудио #1: 48 kHz, AC3 Dolby Digital, 2 (L,R) ch, ~192.00 kbps avg | RUS (HDRezka Studio)
Аудио #2: 48 kHz, AC3 Dolby Digital, 3/2 (L,C,R,l,r) + LFE ch, ~384.00 kbps avg | ENG
Общее
Уникальный идентификатор : 53165742243179697466288187972452653897 (0x27FF5978D7DDC304C7DAC0E03F3C9B49)
Полное имя : F:OlLanDGroupThe.Predator.2018.WEB-DL(1080p).OlLanDGroup.mkv
Формат : Matroska
Версия формата : Version 4 / Version 2
Размер файла : 3,86 Гбайт
Продолжительность : 1 ч. 47 м.
Общий поток : 5131 Кбит/сек
Название фильма : The.Predator.2018 #TorpedoUK#
Дата кодирования : UTC 2018-11-27 06:57:11
Программа кодирования : mkvmerge v25.0.0 ('Prog Noir') 64-bit
Библиотека кодирования : libebml v1.3.6 + libmatroska v1.4.9

Видео
Идентификатор : 1
Формат : AVC
Формат/Информация : Advanced Video Codec
Профиль формата : High@L4
Параметр CABAC формата : Да
Параметр ReFrames формата : 5 кадров
Идентификатор кодека : V_MPEG4/ISO/AVC
Продолжительность : 1 ч. 47 м.
Битрейт : 4556 Кбит/сек
Ширина : 1920 пикселей
Высота : 802 пикселя
Соотношение сторон : 2,40:1
Режим частоты кадров : Постоянный
Частота кадров : 23,976 кадра/сек
Цветовое пространство : YUV
Субдискретизация насыщенности : 4:2:0
Битовая глубина : 8 бит
Тип развёртки : Прогрессивная
Бит/(Пиксели*Кадры) : 0.123
Размер потока : 3,42 Гбайт (89%)
Язык : English
Default : Да
Forced : Нет
Цветовой диапазон : Limited
Основные цвета : BT.709
Характеристики трансфера : BT.709
Коэффициенты матрицы : BT.709

Аудио #1
Идентификатор : 2
Формат : AC-3
Формат/Информация : Audio Coding 3
Расширение режима : CM (complete main)
Параметр Endianness формата : Big
Идентификатор кодека : A_AC3
Продолжительность : 1 ч. 46 м.
Вид битрейта : Постоянный
Битрейт : 192 Кбит/сек
Каналы : 2 канала
Расположение каналов : Front: L R
Частота : 48,0 КГц
Частота кадров : 31,250 кадров/сек (1536 spf)
Битовая глубина : 16 бит
Метод сжатия : С потерями
Задержка видео : -43 мс.
Размер потока : 147 Мбайт (4%)
Заголовок : MVO [HDRezka Studio]
Язык : Russian
Default : Да
Forced : Нет

Аудио #2
Идентификатор : 3
Формат : AC-3
Формат/Информация : Audio Coding 3
Расширение режима : CM (complete main)
Параметр Endianness формата : Big
Идентификатор кодека : A_AC3
Продолжительность : 1 ч. 46 м.
Вид битрейта : Постоянный
Битрейт : 384 Кбит/сек
Каналы : 6 каналов
Расположение каналов : Front: L C R, Side: L R, LFE
Частота : 48,0 КГц
Частота кадров : 31,250 кадров/сек (1536 spf)
Битовая глубина : 16 бит
Метод сжатия : С потерями
Задержка видео : -43 мс.
Размер потока : 294 Мбайт (7%)
Заголовок : [Original]
Язык : English
Default : Нет
Forced : Нет

Текст
Идентификатор : 4
Формат : UTF-8
Идентификатор кодека : S_TEXT/UTF8
Идентификатор кодека/Информация : UTF-8 Plain Text
Продолжительность : 1 ч. 38 м.
Битрейт : 49 бит/сек
Count of elements : 1366
Размер потока : 35,6 Кбайт (0%)
Заголовок : Full
Язык : English
Default : Нет
Forced : Нет

Меню
00:00:00.000 : en:Chapter 01
00:02:01.705 : en:Chapter 02
00:08:33.930 : en:Chapter 03
00:09:46.334 : en:Chapter 04
00:13:48.659 : en:Chapter 05
00:16:10.174 : en:Chapter 06
00:17:37.427 : en:Chapter 07
00:20:22.466 : en:Chapter 08
00:25:02.954 : en:Chapter 09
00:27:37.273 : en:Chapter 10
00:31:11.070 : en:Chapter 11
00:36:24.341 : en:Chapter 12
00:38:01.645 : en:Chapter 13
00:39:43.538 : en:Chapter 14
00:44:35.704 : en:Chapter 15
00:49:16.901 : en:Chapter 16
00:53:19.602 : en:Chapter 17
00:58:35.500 : en:Chapter 18
00:59:59.500 : en:Chapter 19
01:03:17.280 : en:Chapter 20
01:06:37.812 : en:Chapter 21
01:09:52.006 : en:Chapter 22
01:12:27.619 : en:Chapter 23
01:15:56.619 : en:Chapter 24
01:18:53.670 : en:Chapter 25
01:21:25.613 : en:Chapter 26
01:23:09.924 : en:Chapter 27
01:27:09.787 : en:Chapter 28
01:30:56.221 : en:Chapter 29
01:32:15.799 : en:Chapter 30
01:35:09.389 : en:Chapter 31
01:40:01.180 : en:Chapter 32
pb.wtf



Торрент не зареган: Не зарегистрирован ||
Добавлен: 2018-11-27 07:47
Скачано: 0 раз
% Раздел Тема Автор DL S | L
Фильмы (HD 720p, 1080p) (48-60 fps) [ 3.7 GB ] Хищник / The Predator [2018 BDRip 720p / 60 FPS ] от R.G. HD-Films slaventi-69 Скачать
4 | 0
Ultra HD (UHD: 2K, 4K, 8K) — видео сверхвысокой чёткости [ 190.41 GB ] Хищник / The Predator: Quadrilogy [1987-2018 UHD BDRemux 2160p] DUB sheker187 Скачать
1 | 0
Ultra HD (UHD: 2K, 4K, 8K) — видео сверхвысокой чёткости [ 55.74 GB ] Хищник / The Predator [2018 UHD BDRemux 2160p] DUB [] + 2xAVO sheker187 Скачать
1 | 0
Фильмы 2018 [DVDrip, WEB-DLRip, HDrip] (DUB, MVO) [ 1.46 GB ] Хищник / The Predator [2018 BDRip] - [] Twi7ter Скачать
3 | 0
Фильмы 2018 [DVDrip, WEB-DLRip, HDrip] (DUB, MVO) [ 2.18 GB ] Хищник / The Predator [2018 BDRip] - [] Twi7ter Скачать
1 | 0
Фильмы с авторской озвучкой [ 1.46 GB ] Хищник / The Predator [2018 BDRip] [AVO] killermax2013 Скачать
1 | 0
Фильмы [HD 720p, 1080p] (Хороший звук DUB, MVO) [ 6.44 GB ] Хищник / The Predator [2018 BDRip-HEVC 1080p ] DUB [] bober100 Скачать
1 | 0

28-11-2019 20:33  

Отключить всю рекламу на сайте

    Дорогой пользователь! Огромная просьба, поблагодарите релизера, оцените раздачу и оставьте свои комментарий, если Вы скачали Хищник через торрент бесплатно! Внесите свою лепту в развитие PiratBit!
    Комментировать посты могут только пользователи прошедшие не сложную регистрацию
    Показать сообщения:    

    Хищник через торрент
    Скачать бесплатно Хищник
    Хищник скачать торрент
    Хищник смотреть онлайн
    Cкачать фильм Хищник бесплатно
    Хищник скачать торрент в хорошем качестве
    Хищник смотреть онлайн бесплатно в хорошем качестве


    Вы не можете начинать темы
    Вы не можете отвечать на сообщения
    Вы не можете редактировать свои сообщения
    Вы не можете удалять свои сообщения
    Вы не можете голосовать в опросах
    Вы не можете прикреплять файлы к сообщениям
    Вы можете скачивать файлы