Ссылка на приватное зеркало всего за 1$. Внимание количество ограничено!!!

OK

1+1

iTunes

мы

OK

1

WEB-DLRip

Джокер

Пифагор

Ведьмак / The Witcher сериал

iTunes

ПШазам

ОК

Оно 2

iTunes

30
pack

Вам бонус

ВАЖНО

!!Акция!!

Alien_RageХит недели

RePack

Resident Evil 21

ИГРА 18+

pack

RePack

jed

RePack

fifa19

RePack

Assassins Creed: Odyssey

RePack

NEED FOR SPEED™ PAYBACK

4 сезон

9 сезон

Бесстыжие 9 сезон

Все сериалы

все сериалы на PB.wtf

RePack

FAR CRY 5
  

Последний акулий торнадо: Как раз вовремя / The Last Sharknado: It's About Time (Энтони Ферранте) [2018, ужасы, фантастика, фэнтези, боевик, триллер, комедия, приключения, BDRip 720p] MVO [Jaskier] pb.wtf

Последний акулий торнадо: Как раз вовремя через торрент pb.wtf

Размер: 4.23 GB | Добавлен: 1 год 2 мес. назад | Торрент скачан:24 раза
Скачать  

27-11-2018 08:22 Последний акулий торнадо: Как раз вовремя Скачать торрент  

Последний акулий торнадо: Как раз вовремя / The Last Sharknado: It's About Time Год выпуска: 2018
Страна: США
Жанр: ужасы, фантастика, фэнтези, боевик, триллер, комедия, приключения
Продолжительность: 01:26:01
Перевод: Профессиональный (многоголосый) | Jaskier
Субтитры: отсутствуют

Режиссер: Энтони Ферранте

rating

В ролях:

Йен Зиринг, Тара Рид, Касси Скербо, Джуда Фридландер, Вивика А. Фокс, Брендан Петриццо, М. Стивен Фелти, Тодд Рекс, Дебра Уилсон

Описание:

Фин должен вернуться в прошлое и воссоединиться со своей командой борцов с акулами, чтобы остановить первый акулий торнадо и спасти человечество.

Качество: BDRip 720p
Формат: MKV

Видео: MPEG-4 AVC, 5764 Kбит/с, 1280x720
Аудио#1: Русский (AC3, 6 ch, 640 Кбит/с)
Аудио#2: английский (AC3, 6 ch, 640 Кбит/с)
скриншот  скриншот  скриншот  

Общее
Уникальный идентификатор : 18318366823901111603407017776623096545 (0xDC7FD36F53D94DF8536A512B5CF92E1)
Полное имя : E:\The.Last.Sharknado.Its.About.Time.2018.BDRip.720p.Jaskier.mkv
Формат : Matroska
Версия формата : Version 4 / Version 2
Размер файла : 4,23 Гбайт
Продолжительность : 1 ч. 26 м.
Общий поток : 7036 Кбит/сек
Дата кодирования : UTC 2018-11-26 21:00:38
Программа кодирования : mkvmerge v28.0.0 ('Voice In My Head') 64-bit
Библиотека кодирования : libebml v1.3.6 + libmatroska v1.4.9

Видео
Идентификатор : 1
Формат : AVC
Формат/Информация : Advanced Video Codec
Профиль формата : High@L4.1
Настройки формата : CABAC / 5 Ref Frames
Параметр CABAC формата : Да
Параметр RefFrames формата : 5 кадров
Идентификатор кодека : V_MPEG4/ISO/AVC
Продолжительность : 1 ч. 26 м.
Битрейт : 5764 Кбит/сек
Ширина : 1280 пикселей
Высота : 720 пикселей
Соотношение сторон : 16:9
Режим частоты кадров : Постоянный
Частота кадров : 23,976 (24000/1001) кадра/сек
Цветовое пространство : YUV
Субдискретизация насыщенности : 4:2:0
Битовая глубина : 8 бит
Тип развёртки : Прогрессивная
Бит/(Пиксели*Кадры) : 0.261
Размер потока : 3,37 Гбайт (80%)
Библиотека кодирования : x264 core 155 r2901 7d0ff22
Настройки программы : cabac=1 / ref=5 / deblock=1:0:0 / analyse=0x3:0x133 / me=umh / subme=7 / psy=1 / psy_rd=1.00:0.00 / mixed_ref=1 / me_range=16 / chroma_me=1 / trellis=2 / 8x8dct=1 / cqm=0 / deadzone=21,11 / fast_pskip=0 / chroma_qp_offset=-2 / threads=12 / lookahead_threads=2 / sliced_threads=0 / nr=0 / decimate=1 / interlaced=0 / bluray_compat=0 / constrained_intra=0 / bframes=3 / b_pyramid=2 / b_adapt=1 / b_bias=0 / direct=3 / weightb=1 / open_gop=0 / weightp=2 / keyint=250 / keyint_min=23 / scenecut=40 / intra_refresh=0 / rc_lookahead=50 / rc=2pass / mbtree=1 / bitrate=5764 / ratetol=1.0 / qcomp=0.60 / qpmin=0 / qpmax=69 / qpstep=4 / cplxblur=20.0 / qblur=0.5 / ip_ratio=1.40 / aq=1:1.00
Язык : English
Default : Да
Forced : Нет

Аудио #1
Идентификатор : 2
Формат : AC-3
Формат/Информация : Audio Coding 3
Идентификатор кодека : A_AC3
Продолжительность : 1 ч. 26 м.
Вид битрейта : Постоянный
Битрейт : 640 Кбит/сек
Каналы : 6 каналов
Расположение каналов : Front: L C R, Side: L R, LFE
Частота : 48,0 КГц
Частота кадров : 31,250 кадров/сек (1536 SPF)
Битовая глубина : 16 бит
Метод сжатия : С потерями
Размер потока : 394 Мбайт (9%)
Язык : Russian
ServiceKind/String : Complete Main
Default : Да
Forced : Нет

Аудио #2
Идентификатор : 3
Формат : AC-3
Формат/Информация : Audio Coding 3
Идентификатор кодека : A_AC3
Продолжительность : 1 ч. 26 м.
Вид битрейта : Постоянный
Битрейт : 640 Кбит/сек
Каналы : 6 каналов
Расположение каналов : Front: L C R, Side: L R, LFE
Частота : 48,0 КГц
Частота кадров : 31,250 кадров/сек (1536 SPF)
Битовая глубина : 16 бит
Метод сжатия : С потерями
Размер потока : 394 Мбайт (9%)
Язык : English
ServiceKind/String : Complete Main
Default : Нет
Forced : Нет

pb.wtf
!bober100 писал(а):

Реклама: Присутствует голосовая.



Скачать Последний акулий торнадо: Как раз вовремя через торрент http://img11.lostpic.net/2018/11/27/7163dee352c0f53938e4514a925cf19d.jpg Скачать фильм Последний акулий торнадо: Как раз вовремя через торрент бесплантно в хорошем качестве Описание: Фин должен вернуться в прошлое и воссоединиться со своей командой борцов с акулами, чтобы остановить первый акулий торнадо и ... 10 10 2
Торрент: Зарегистрирован [2018-11-27 08:22] · скачан: 24 раз
Статус: T временная
Размер: 4.23 GB
Как cкачать? Как скачать Последний акулий торнадо: Как раз вовремя через торрент | qTorrent

28-11-2019 20:33  

Отключить всю рекламу на сайте

    Дорогой пользователь! Огромная просьба, поблагодарите релизера, оцените раздачу и оставьте свои комментарий, если Вы скачали Последний акулий торнадо: Как раз вовремя через торрент бесплатно! Внесите свою лепту в развитие PiratBit!
    Комментировать посты могут только пользователи прошедшие не сложную регистрацию
    Показать сообщения:    

    Последний акулий торнадо: Как раз вовремя через торрент
    Скачать бесплатно Последний акулий торнадо: Как раз вовремя
    Последний акулий торнадо: Как раз вовремя скачать торрент
    Последний акулий торнадо: Как раз вовремя смотреть онлайн
    Cкачать фильм Последний акулий торнадо: Как раз вовремя бесплатно
    Последний акулий торнадо: Как раз вовремя скачать торрент в хорошем качестве
    Последний акулий торнадо: Как раз вовремя смотреть онлайн бесплатно в хорошем качестве


    Вы не можете начинать темы
    Вы не можете отвечать на сообщения
    Вы не можете редактировать свои сообщения
    Вы не можете удалять свои сообщения
    Вы не можете голосовать в опросах
    Вы не можете прикреплять файлы к сообщениям
    Вы можете скачивать файлы