2 сезон

iTunes

1 сезон

1

iTunes

iTunes

iTunes

1 сезон

RePack

30

ИГРА 18+

pack

ВАЖНО

!!Акция!!

Alien_RageХит недели

RePack

MK11
pack

Забери бонус

RePack

jed

!!Акция!!

Alien_Rage

RePack

fifa19

RePack

Assassins Creed: Odyssey

RePack

NEED FOR SPEED™ PAYBACK

4 сезон

9 сезон

Бесстыжие 9 сезон

Все сериалы

все сериалы на PB.wtf

RePack

FAR CRY 5
  

Мельник / Сезон: 1 / Серии: 1-16 из 16 (Станислав Мареев) [2018 , Детектив, боевик, WEB-DL 1080p] pb.wtf

Мельник через торрент pb.wtf

Размер: 32.65 GB | Добавлен: 1 год 11 мес. назад | Торрент скачан:51 раз
Скачать  

27-11-2018 10:15 Мельник Скачать торрент  

Мельник
Год выпуска: 2018
Страна: Россия
Жанр: Детектив, боевик
Продолжительность: ~ 00:48:00
Субтитры: отсутствуют

Режиссер: Станислав Мареев



В ролях:

Сергей Шнырёв, Сергей Паршин, Александр Константинов, Роман Грибков, Игорь Черневич, Наталья Высочанская, Вячеслав Гасай, Юрий Ковалёв, Антон Чернов, Сергей Воробьёв, Даниил Кокин, Сергей Красавин, Татьяна Захарова, Оксана Базилевич, Алла Еминцева, Любовь Виролайнен (мл.), Диана Дезмари, Артур Федынко, Виталий Коваленко, Алиса Миронова, Максим Миронов, Руслан Миколенко, Мария Фефилова, Ричард Ардашин, Андрей Горбачёв

Описание:

После тяжелого ранения бывший оперативник Роман Мельник считает дни до пенсии в конвойных войсках ФСИН на должности начальника выездного караула. В одну из смен он сопровождает особо опасных преступников в специальном вагоне поезда. На одной из станций Роману приходится отлучиться. В это время в вагон проникает неизвестный и, нейтрализовав конвой, освобождает осужденных. Мельнику грозит служебное разбирательство и даже суд, но события вдруг приобретают неожиданный оборот. Теперь Роман по поручению руководства ФСИН должен как можно быстрее поймать сбежавших преступников, чтобы избежать огласки в прессе и паники среди местного населения… Каждая серия посвящена поимке одного из преступников и приближает зрителя к разгадке главной тайны: кто из руководства спецслужбы коррупционер и предатель.

Качество: WEB-DL 1080p
Формат: MKV

Видео: MPEG-4 AVC, ~ 6000 Кбит/с, 1920x1080
Аудио: AC3, 2 ch, 192 Кбит/с
скриншот  скриншот  скриншот  скриншот  

Общее
Уникальный идентификатор : 238108301337526058007928054019724098478 (0xB321FDA223DFB4179B755FE83C033BAE)
Полное имя : D:\Фильмы торренты\Melnik.2018.WEB-DL(1080p).Nikolspup\Melnik.(01.seriya.iz.16).2018.WEB-DL(1080p).Nikolspup.mkv
Формат : Matroska
Версия формата : Version 4 / Version 2
Размер файла : 2,00 Гбайт
Продолжительность : 46 м. 32 с.
Режим общего битрейта : Постоянный
Общий поток : 6137 Кбит/сек
Дата кодирования : UTC 2018-05-28 19:38:37
Программа кодирования : mkvmerge v7.8.0 ('River Man') 32bit built on Mar 27 2015 16:18:02
Библиотека кодирования : libebml v1.3.1 + libmatroska v1.4.2

Видео
Идентификатор : 1
Формат : AVC
Формат/Информация : Advanced Video Codec
Профиль формата : High@L4.1
Настройки формата : 2 Ref Frames
Параметр CABAC формата : Нет
Параметр RefFrames формата : 2 кадра
Идентификатор кодека : V_MPEG4/ISO/AVC
Продолжительность : 46 м. 32 с.
Вид битрейта : Постоянный
Битрейт : 6000 Кбит/сек
Ширина : 1920 пикселей
Высота : 1080 пикселей
Соотношение сторон : 16:9
Режим частоты кадров : Постоянный
Частота кадров : 25,000 кадров/сек
Стандарт вещания : PAL
Цветовое пространство : YUV
Субдискретизация насыщенности : 4:2:0
Битовая глубина : 8 бит
Тип развёртки : Прогрессивная
Бит/(Пиксели*Кадры) : 0.116
Размер потока : 1,93 Гбайт (97%)
Default : Да
Forced : Нет
Цветовой диапазон : Limited
Основные цвета : BT.709
Характеристики трансфера : BT.709
Коэффициенты матрицы : BT.709

Аудио
Идентификатор : 2
Формат : AC-3
Формат/Информация : Audio Coding 3
Идентификатор кодека : A_AC3
Продолжительность : 46 м. 32 с.
Вид битрейта : Постоянный
Битрейт : 192 Кбит/сек
Каналы : 2 канала
Расположение каналов : Front: L R
Частота : 48,0 КГц
Частота кадров : 31,250 кадров/сек (1536 SPF)
Битовая глубина : 16 бит
Метод сжатия : С потерями
Размер потока : 63,9 Мбайт (3%)
Язык : Russian
ServiceKind/String : Complete Main
Default : Да
Forced : Нет

pb.wtf



Скачать Мельник через торрент http://img12.lostpic.net/2018/05/28/ec91023ef57b2f2e40b13a6b075d2160.jpg Скачать фильм Мельник через торрент бесплантно в хорошем качестве Описание: После тяжелого ранения бывший оперативник Роман Мельник считает дни до пенсии в конвойных войсках ФСИН на должности начальника ... 9 10 5
Торрент: Зарегистрирован [2018-11-27 10:15] · скачан: 51 раз
Статус: √ проверено
Размер: 32.65 GB
Как cкачать? Как скачать Мельник через торрент | qTorrent

% Раздел Тема Автор DL S | L
Наши сериалы [ 8.55 GB ] Булатов / Сезон: 1 / Серии: 1-16 из 16 [2020 WEBRip-AVC] bober100 Скачать
7 | 1
Наши сериалы [ 38.27 GB ] Булатов / Сезон: 1 / Серии: 1-16 из 16 [2020 WEBRip 1080p] bober100 Скачать
2 | 0
Наши сериалы [ 9.1 GB ] Балабол / Сезон-3 / Серии: 1-16 из 16 [2019 SATRip-AVC] aleksan55 Скачать
3 | 0
Наши сериалы [ 10.06 GB ] Балабол / Одинокий волк Саня / Сезон: 3 / Серии: 1-16 из 16 [2019 WEB-DLRip] bober100 Скачать
1 | 0
Наши сериалы [ 12.24 GB ] Балабол / Одинокий волк Саня / Сезон: 3 / Серии: 1-16 из 16 [2019 WEBRip-AVC] bober100 Скачать
1 | 0
Наши сериалы [ 23.4 GB ] Балабол / Одинокий волк Саня / Сезон: 3 / Серии: 1-16 из 16 [2019 WEB-DL 720p] bober100 Скачать
2 | 0
Наши сериалы [ 34.43 GB ] Балабол / Одинокий волк Саня / Сезон: 3 / Серии: 1-16 из 16 [2019 WEB-DL 1080p] bober100 Скачать
1 | 0

28-11-2019 20:33  

Отключить всю рекламу на сайте

    Дорогой пользователь! Огромная просьба, поблагодарите релизера, оцените раздачу и оставьте свои комментарий, если Вы скачали Мельник через торрент бесплатно! Внесите свою лепту в развитие PiratBit!
    Комментировать посты могут только пользователи прошедшие не сложную регистрацию
    Показать сообщения:    

    Мельник через торрент
    Скачать бесплатно Мельник
    Мельник скачать торрент
    Мельник смотреть онлайн
    Cкачать фильм Мельник бесплатно
    Мельник скачать торрент в хорошем качестве
    Мельник смотреть онлайн бесплатно в хорошем качестве


    Вы не можете начинать темы
    Вы не можете отвечать на сообщения
    Вы не можете редактировать свои сообщения
    Вы не можете удалять свои сообщения
    Вы не можете голосовать в опросах
    Вы не можете прикреплять файлы к сообщениям
    Вы можете скачивать файлы