Всегда рабочее зеркало без VPN и Proxy просто перед .vidak.icu напиши любое слово или цифру, Пример http://erb3.vidak.icu

MVO

2 сезон

2 сезон

1

1 сезон

iTunes

2 сезон

13

1 сезон

Распродажа

pack

Рекомендуем

Пиратка

30

ВАЖНО

RePack

MK11

RePack

jed

RePack

fifa19

RePack

RDR2

RePack

NEED FOR SPEED™ PAYBACK

Кинопоиск HD

6 сезон

 Острые козырьки 6 сезон

Все сериалы

все сериалы на PB.wtf

RePack

FAR CRY 5

Anonymous, нам критически не хватает 5601 руб. на оплату серверов и переферии за Апрель, помоги нам пожалуйста, вся надежда только на тебя. В благодарность мы отключим тебе всю рекламу на сайте!

×
  
Magnet ссылка

Порно экзотическая любовь / Porno Esotic Love (Джо Д’Амато / Joe D'Amato) [1980 г., Drama, Adult, Classic sex, TVRip, Оригинал] pb.wtf

Порно экзотическая любовь через торрент pb.wtf

Размер: 1.13 GB | Добавлен: 3 года 5 мес. назад | Торрент скачан:238 раз
Смотреть онлайн Порно экзотическая любовь | Скачать    Ребята, помогите собрать деньги на оплату серверов!!!

27-11-2018 10:52 Порно экзотическая любовь Скачать торрент  

Порно экзотическая любовь / Porno Esotic LoveГод выпуска: 1980
Страна: Италия
Жанр: Drama, Adult, Classic sex
Продолжительность: 01:39:30
Перевод: оригинал (итальянский)
Субтитры: отсутствуют

Режиссер: Джо Д’Амато / Joe D'Amato
В ролях: Лаура Гемсер, Габриэле Тинти, Дирче Фунари, Анндж Горен, Марк Шеннон, Мишель Штарк

rating

Описание: Eva has an erotic dream night in which Iris, her lesbian lover makes love with two blacks at beach. In the morning she will discover she is dead, with a syringe in her hand. She decides to take revenge and goes to Southeast Asia for further engagement. Consulate Frank has been using Iris and her husband, Steve for drug trafficking. Here she performs with her python at a kinky nightclub. And Iris performs live sex acts both on and off stag. In the end, the poisonous snakes are the poisonous snakes, who are first a murderous weapon and then an instrument of revenge.
У Евы есть эротическая ночь мечты, в которой Ирис, ее любовник-лесбиянка занимается любовью с двумя чернокожими на пляже. Утром она обнаружит, что умерла со шприцем в руке. Она решает отомстить и отправляется в Юго-Восточную Азию для дальнейшего участия. Консульство Фрэнк использовало Айрис и ее мужа Стива для торговли наркотиками. Здесь она выступает со своим питоном в кудрявом ночном клубе. И Айрис исполняет живые половые акты как на сцене, так и вне ее. В конце концов, ядовитые змеи-это ядовитые змеи, которые сначала являются убийственным оружием, а затем инструментом мести.

Качество: TVRip
Формат: AVI
Видео кодек: DivX
Аудио кодек: MP3
Видео: 480x360 (4:3), 25 fps ~ 1500 Kbps
Аудио: 48 KHz, 2 ch ~ 112 Kb/s (итальянский)
скриншот   скриншот   скриншот   скриншот   скриншот   скриншот   скриншот   скриншот  

Общее
Полное имя : Q:\TorF\Porno Esotic Love 1980.avi
Формат : AVI
Формат/Информация : Audio Video Interleave
Размер файла : 1,13 Гбайт
Продолжительность : 1 ч. 39 м.
Общий поток : 1620 Кбит/сек
Программа кодирования : VirtualDubMod 1.5.10.3 (build 2550/release)
Библиотека кодирования : VirtualDubMod build 2550/release

Видео
Идентификатор : 0
Формат : MPEG-4 Visual
Параметр BVOP формата : Да
Параметр QPel формата : Нет
Параметр GMC формата : Без точки перехода
Параметр матрицы формата : Default (H.263)
Идентификатор кодека : DX50
Идентификатор кодека/Подсказка : DivX 5
Продолжительность : 1 ч. 39 м.
Битрейт : 1498 Кбит/сек
Ширина : 480 пикселей
Высота : 360 пикселей
Соотношение сторон : 4:3
Частота кадров : 25,000 кадров/сек
Цветовое пространство : YUV
Субдискретизация насыщенности : 4:2:0
Битовая глубина : 8 бит
Тип развёртки : Прогрессивная
Метод сжатия : С потерями
Бит/(Пиксели*Кадры) : 0.347
Размер потока : 1,04 Гбайт (92%)
Библиотека кодирования : DivX 5.0.2 (UTC 2002-05-16)

Аудио
Идентификатор : 1
Формат : MPEG Audio
Версия формата : Version 1
Профиль формата : Layer 3
Режим : Joint stereo
Расширение режима : MS Stereo
Идентификатор кодека : 55
Идентификатор кодека/Подсказка : MP3
Продолжительность : 1 ч. 39 м.
Вид битрейта : Постоянный
Битрейт : 112 Кбит/сек
Каналы : 2 канала
Частота : 48,0 КГц
Метод сжатия : С потерями
Размер потока : 79,7 Мбайт (7%)
Выравнивание : Соединение по промежуткам
Продолжительность промежутка : 40 мс. (1,00 видеокадр)
Время предзагрузки промежутка : 504 мс.
Библиотека кодирования : LAME3.99.5ЄЄЄЄЄЄЄЄЄЄ

pb.wtf



pack Скачать Порно экзотическая любовь через торрент https://pic.kartinco.top/images/11/zbkqz.jpg Скачать, смотреть онлайн Порно экзотическая любовь бесплантно в хорошем качестве Описание: Eva has an erotic dream night in which Iris, her lesbian lover makes love with two blacks at beach. In the morning she will ... 9.3 10 13
Info! Золотая раздача, скачанное не засчитывается.
Торрент: Зарегистрирован [2018-11-27 10:52] · скачан: 238 раз
Статус: √ проверено
Размер: 1.13 GB
Как cкачать? Как скачать Порно экзотическая любовь через торрент | UTorrent



Последний раз редактировалось: PROCTOLOG (2018-11-27 10:57), всего редактировалось 1 раз

28-11-2019 20:33  

Отключить всю рекламу на сайте

27-11-2018 10:54 Порно экзотическая любовь Скачать торрент  

качество по сэмплу. порно тут не много, может даже в эротическую категорию закинутьpb.wtf



pack

08-12-2018 08:17 Порно экзотическая любовь Скачать торрент  

Топик был перенесен из форума Полнометражные порно фильмы в форум Классические порно фильмы


sheker187pb.wtf



pack
    Дорогой пользователь! Огромная просьба, поблагодарите релизера, оцените раздачу и оставьте свои комментарий, если Вы скачали Порно экзотическая любовь через торрент бесплатно!
    Комментировать посты могут только пользователи прошедшие не сложную регистрацию
    Показать сообщения:    

    Порно экзотическая любовь через торрент
    Скачать бесплатно Порно экзотическая любовь
    Порно экзотическая любовь скачать торрент
    Порно экзотическая любовь смотреть онлайн
    Cкачать фильм Порно экзотическая любовь бесплатно
    Порно экзотическая любовь скачать торрент в хорошем качестве
    Порно экзотическая любовь смотреть онлайн бесплатно в хорошем качестве


    Вы не можете начинать темы
    Вы не можете отвечать на сообщения
    Вы не можете редактировать свои сообщения
    Вы не можете удалять свои сообщения
    Вы не можете голосовать в опросах
    Вы не можете прикреплять файлы к сообщениям
    Вы можете скачивать файлы