Ссылка на приватное зеркало нашего сайта всего за 1$. Внимание количество ограничено!!!

2 сезон

iTunes

1 сезон

1

2 сезон

2 сезон

iTunes

1 сезон

RePack

30

Ultimate

ВАЖНО

ИГРА 18+

pack

RePack

MK11
pack

Забери бонус

RePack

jed

!!Акция!!

Alien_Rage

RePack

fifa19

RePack

Assassins Creed: Odyssey

RePack

NEED FOR SPEED™ PAYBACK

4 сезон

9 сезон

Бесстыжие 9 сезон

Все сериалы

все сериалы на PB.wtf

RePack

FAR CRY 5
  

Доллар / One Dollar / Сезон: 1 / Серии: 1-10 из 10 (Крэйг Зобел) [2018, Триллер, WEB-DLRip] [MVO] (NewStudio) pb.wtf

Доллар через торрент pb.wtf

Размер: 6.36 GB | Добавлен: 2 года назад | Торрент скачан:47 раз
Скачать  

27-11-2018 15:30 Доллар Скачать торрент  

Доллар / One Dollar
Информация о фильме

Год выпуска: 2018
Жанр: Триллер
Страна: США
Студия: CBS
Продолжительность: 1 x ~ 00:53:00
Перевод: Профессиональный (многоголосый) *NewStudio*

Режиссер: Крэйг Зобел

В ролях: Джон Кэрролл Линч, Натаниэль Мартелло-Уайт, Кристофер Денэм, Лесли Одом мл., Джошуа Битон, Филип Эттинджер, Грейси Лоуренс, Джефф Перри, Стерджил Симпсон

О фильме:

Маленький американский городок приходит в себя после экономического кризиса 2007-2009 гг. Меняя владельцев, купюра в один доллар постепенно объединяет группу незнакомцев, причастных к шокирующим убийствам.


Файл

Качество: WEB-DLRip
Формат: AVI
Видео: 720х320 (2.25:1), 23.976 fps, XviD build 67, 1168 Kbps, 0.22 Bits/Pixel
Аудио 1: Русский (MP3, 2 ch, 128 Кбит/с)
Аудио 2: Английский (MP3, 2 ch, 128 Кбит/с)
скриншот  скриншот  скриншот  
General
Complete name : Downloads\One Dollar.(S01) NewStudio\One.Dollar.s01e01.WEBDLRip.NewStudio.avi
Format : AVI
Format/Info : Audio Video Interleave
File size : 532 MiB
Duration : 51mn 41s
Overall bit rate : 1 438 Kbps
Writing application : VirtualDubMod 1.5.10.2 (build 2540/release)
Writing library : VirtualDubMod build 2540/release
Video #0
ID : 0
Format : MPEG-4 Visual
Format profile : Advanced Simple@L5
Format settings, BVOP : 2
Format settings, QPel : Yes
Format settings, GMC : No warppoints
Format settings, Matrix : Default (MPEG)
Muxing mode : Packed bitstream
Codec ID : XVID
Codec ID/Hint : XviD
Duration : 51mn 41s
Bit rate : 1 168 Kbps
Width : 720 pixels
Height : 320 pixels
Display aspect ratio : 2.25:1
Frame rate : 23.976 fps
Color space : YUV
Chroma subsampling : 4:2:0
Bit depth : 8 bits
Scan type : Progressive
Compression mode : Lossy
Bits/(Pixel*Frame) : 0.211
Stream size : 432 MiB (81%)
Writing library : XviD 67
Audio #1
ID : 1
Format : MPEG Audio
Format version : Version 1
Format profile : Layer 3
Mode : Joint stereo
Mode extension : MS Stereo
Codec ID : 55
Codec ID/Hint : MP3
Duration : 51mn 41s
Bit rate mode : Constant
Bit rate : 128 Kbps
Channel(s) : 2 channels
Sampling rate : 48.0 KHz
Compression mode : Lossy
Stream size : 47.3 MiB (9%)
Alignment : Aligned on interleaves
Interleave, duration : 42 ms (1.00 video frame)
Interleave, preload duration : 504 ms
Audio #2
ID : 2
Format : MPEG Audio
Format version : Version 1
Format profile : Layer 3
Mode : Joint stereo
Mode extension : MS Stereo
Codec ID : 55
Codec ID/Hint : MP3
Duration : 51mn 41s
Bit rate mode : Constant
Bit rate : 128 Kbps
Channel(s) : 2 channels
Sampling rate : 48.0 KHz
Compression mode : Lossy
Stream size : 47.3 MiB (9%)
Alignment : Aligned on interleaves
Interleave, duration : 42 ms (1.00 video frame)
Interleave, preload duration : 504 ms
pb.wtf



Скачать Доллар через торрент http://i99.fastpic.ru/big/2018/0808/bd/c1c316b3849fec10fcf4342480febbbd.png Скачать фильм Доллар через торрент бесплантно в хорошем качестве О фильме:Маленький американский городок приходит в себя после экономического кризиса 2007-2009 гг. Меняя владельцев, купюра в один доллар ... 7 10 3
Торрент: Зарегистрирован [2018-11-27 20:02] · скачан: 47 раз
Статус: √ проверено
Размер: 6.36 GB
Как cкачать? Как скачать Доллар через торрент | qTorrent

% Раздел Тема Автор DL S | L
Зарубежные сериалы [ 17.12 GB ] Доллар / One Dollar / Сезон: 1 / Серии: 1-10 из 10 [2018 WEBRip 1080p] [MVO] killermax2013 Скачать
1 | 0
Зарубежные сериалы [ 6.2 GB ] Доллар / One Dollar / Сезон: 1 / Серии: 1-10 из 10 [2018 WEBRip] [DVO] killermax2013 Скачать
1 | 0
Зарубежные сериалы [ 6.96 GB ] Доллар / One Dollar / Сезон: 1 / Серии: 1-10 из 10 [2018 WEB-DLRip] DVO [SunshineStudio] bober100 Скачать
1 | 0
Зарубежные сериалы [ 6.44 GB ] Доллар / One Dollar / Сезон: 1 / Серии: 1-10 из 10 [2018 WEB-DLRip] DVO [SunshineStudio] bober100 Скачать
1 | 0
Зарубежные сериалы [ 6.97 GB ] Доллар / One Dollar / Сезон: 1 / Серии: 1-6 из 10 [2018 WEB-DL 720p] [DVO] killermax2013 Скачать
1 | 0
Зарубежные сериалы [ 20.33 GB ] Доллар / One Dollar / Сезон: 1 / Серии: 1-10 из 10 [2018 WEB-DL 1080p] [MVO] killermax2013 Скачать
1 | 0
Зарубежные сериалы [ 12.26 GB ] Доллар / One Dollar / Сезон: 1 / Серии: 1-9 из 10 [2018 WEBRip 720p] MVO [ColdFilm] bober100 Скачать
1 | 0

28-11-2019 20:33  

Отключить всю рекламу на сайте

    Дорогой пользователь! Огромная просьба, поблагодарите релизера, оцените раздачу и оставьте свои комментарий, если Вы скачали Доллар через торрент бесплатно! Внесите свою лепту в развитие PiratBit!
    Комментировать посты могут только пользователи прошедшие не сложную регистрацию
    Показать сообщения:    

    Доллар через торрент
    Скачать бесплатно Доллар
    Доллар скачать торрент
    Доллар смотреть онлайн
    Cкачать фильм Доллар бесплатно
    Доллар скачать торрент в хорошем качестве
    Доллар смотреть онлайн бесплатно в хорошем качестве


    Вы не можете начинать темы
    Вы не можете отвечать на сообщения
    Вы не можете редактировать свои сообщения
    Вы не можете удалять свои сообщения
    Вы не можете голосовать в опросах
    Вы не можете прикреплять файлы к сообщениям
    Вы можете скачивать файлы