Ссылка на приватное зеркало нашего сайта всего за 1$. Внимание количество ограничено!!!

2 сезон

iTunes

1 сезон

1

2 сезон

2 сезон

iTunes

1 сезон

RePack

30

Ultimate

ВАЖНО

ИГРА 18+

pack

RePack

MK11
pack

Забери бонус

RePack

jed

!!Акция!!

Alien_Rage

RePack

fifa19

RePack

Assassins Creed: Odyssey

RePack

NEED FOR SPEED™ PAYBACK

4 сезон

9 сезон

Бесстыжие 9 сезон

Все сериалы

все сериалы на PB.wtf

RePack

FAR CRY 5
  

ФБР / FBI / Сезон: 1 / Серии: 1-22 из 22 (Артур В. Форни, Ник Гомез, Нильс Арден Оплев) [2018, Драма, криминал, WEB-DL 1080p] [MVO] (TVShows) pb.wtf

ФБР через торрент pb.wtf

Размер: 54.15 GB | Добавлен: 1 год 6 мес. назад | Торрент скачан:12 раз
Скачать  

28-11-2018 10:34 ФБР Скачать торрент  

ФБР / FBI

Год выпуска: 2018
Страна: США
Жанр: Драма, криминал
Продолжительность: ~ 00:43:00
Перевод: Профессиональный (многоголосый закадровый) | TVShows

Режиссёр: Артур В. Форни, Ник Гомез, Нильс Арден Оплев
В ролях: Кортни Гонсалес, Эбони Ноэль, Мисси Перегрим, Джереми Систо, Зико Заки, Рой Авигдори, Assibey Blake, Мак Брандт, Кеня, Джэми Бурк
Описание: Проект сфокусируется на работе нью-йоркского отделения Федерального бюро расследований.

скриншот  

Качество: WEB-DL 1080p
Формат: MKV
Видео: 1920x1080 (16:9) | X264 | ~7265 kbps | 23.976 fps
Аудио 1: AC3 | 48 KHz | 5.1 (Front: L С R Side: L R) + LFE | ~384 kbps [RUS]
Аудио 2: E-AC3 | 48 KHz | 5.1 (Front: L С R Side: L R) + LFE | ~640 kbps [ENG]
Субтитры: английские
Format : Matroska
Format version : Version 4 / Version 2
File size : 2.53 GiB
Duration : 43 min 43 s
Overall bit rate : 8 291 kb/s
Encoded date : UTC 2018-11-01 06:53:55
Writing application : mkvmerge v28.2.0 ('The Awakening') 64-bit
Writing library : libebml v1.3.6 + libmatroska v1.4.9

Video
ID : 1
Format : AVC
Format/Info : Advanced Video Codec
Format profile : High@L4
Format settings : CABAC / 4 Ref Frames
Format settings, CABAC : Yes
Format settings, ReFrames : 4 frames
Codec ID : V_MPEG4/ISO/AVC
Duration : 43 min 43 s
Bit rate : 7 265 kb/s
Width : 1 920 pixels
Height : 1 080 pixels
Display aspect ratio : 16:9
Frame rate mode : Constant
Frame rate : 24.000 FPS
Color space : YUV
Chroma subsampling : 4:2:0
Bit depth : 8 bits
Scan type : Progressive
Bits/(Pixel*Frame) : 0.146
Stream size : 2.22 GiB (88%)
Default : Yes
Forced : No
Color range : Limited
Color primaries : BT.709
Transfer characteristics : BT.709
Matrix coefficients : BT.709

Audio #1
ID : 2
Format : AC-3
Format/Info : Audio Coding 3
Codec ID : A_AC3
Duration : 43 min 43 s
Bit rate mode : Constant
Bit rate : 384 kb/s
Channel(s) : 6 channels
Channel positions : Front: L C R, Side: L R, LFE
Sampling rate : 48.0 kHz
Frame rate : 31.250 FPS (1536 SPF)
Bit depth : 16 bits
Compression mode : Lossy
Stream size : 120 MiB (5%)
Title : TVShows
Language : Russian
Service kind : Complete Main
Default : Yes
Forced : Yes

Audio #2
ID : 3
Format : E-AC-3
Format/Info : Enhanced Audio Coding 3
Codec ID : A_EAC3
Duration : 43 min 43 s
Bit rate mode : Constant
Bit rate : 640 kb/s
Channel(s) : 6 channels
Channel positions : Front: L C R, Side: L R, LFE
Sampling rate : 48.0 kHz
Frame rate : 187.500 FPS (256 SPF)
Compression mode : Lossy
Stream size : 200 MiB (8%)
Title : Original
Language : English
Service kind : Complete Main
Default : No
Forced : No

Text
ID : 4
Format : UTF-8
Codec ID : S_TEXT/UTF8
Codec ID/Info : UTF-8 Plain Text
Duration : 42 min 34 s
Bit rate : 89 b/s
Count of elements : 829
Stream size : 27.8 KiB (0%)
Title : English
Language : English
Default : No
Forced : No
скриншот  скриншот  скриншот  
Когда раздача ведётся путём добавления новых серий, при каждом добавлении создётся новый торрент. Чтобы начать докачку новой серии, пользователям необходимо сделать следующее:
(1) остановить скачивание,
(2) удалить старый торрент у себя из клиента (старые серии удалять не надо),
(3) скачать новый торрент и запустить его у себя в клиенте вместо старого, при этом указать клиенту путь в старую папку, куда и должно происходить скачивание новых серий.
Ваш клиент при этом должен произвести хеширование (проверку) старой папки (если не производит сам - помогите ему сделать это), и будет докачивать только те серии, которых у вас ещё нет. Старые серии при этом не удаляются, а продолжают раздаваться!
Eсли вы уже удалили старые серии, то предотвратить повторную закачку старых серий можно, отжав галочку в соответсвующих местах при запуске нового торрента. По возможности, желательно не удалять старые серии как можно дольше, чтобы релизёр не столько продолжал раздавать старые серии, а смог сконцентрироваться на новых.

pb.wtf



Скачать ФБР через торрент http://img11.lostpic.net/2018/09/27/e17032dbb76200db3a652ea956184b25.png Скачать фильм ФБР через торрент бесплантно в хорошем качестве Описание: Проект сфокусируется на работе нью-йоркского отделения Федерального бюро расследований. ... 10 10 3
Торрент: Зарегистрирован [2019-05-20 05:42] · скачан: 12 раз
Статус: √ проверено
Размер: 54.15 GB
Как cкачать? Как скачать ФБР через торрент | qTorrent

% Раздел Тема Автор DL S | L
Зарубежные сериалы [ 26.12 GB ] ФБР / FBI / Сезон: 1 / Серии: 1-22 из 22 [2018 WEB-DL 720p] MVO [TVShows] bober100 Скачать
1 | 0
Зарубежные сериалы [ 23.09 GB ] ФБР / FBI / Сезон: 1 / Серии: 1-22 из 22 [2018 WEB-DL 720p] MVO [Jaskier] bober100 Скачать
1 | 0
Зарубежные сериалы [ 11.32 GB ] ФБР / FBI / Сезон: 1 / Серии: 1-22 из 22 [2018 WEB-DLRip] MVO [Jaskier] bober100 Скачать
1 | 0

28-11-2019 20:33  

Отключить всю рекламу на сайте

    Дорогой пользователь! Огромная просьба, поблагодарите релизера, оцените раздачу и оставьте свои комментарий, если Вы скачали ФБР через торрент бесплатно! Внесите свою лепту в развитие PiratBit!
    Комментировать посты могут только пользователи прошедшие не сложную регистрацию
    Показать сообщения:    

    ФБР через торрент
    Скачать бесплатно ФБР
    ФБР скачать торрент
    ФБР смотреть онлайн
    Cкачать фильм ФБР бесплатно
    ФБР скачать торрент в хорошем качестве
    ФБР смотреть онлайн бесплатно в хорошем качестве


    Вы не можете начинать темы
    Вы не можете отвечать на сообщения
    Вы не можете редактировать свои сообщения
    Вы не можете удалять свои сообщения
    Вы не можете голосовать в опросах
    Вы не можете прикреплять файлы к сообщениям
    Вы можете скачивать файлы