новый адрес
Ссылка на приватное зеркало всего за 1$. Внимание количество ограничено!!!

iTunes

1+1

iTunes

мы

WEB-DL

1

iTunes

Чернобыль

iTunes

Ральф против интернета

Лицензия

ПШазам

Лицензия

Оно 2

Лицензия

30
pack

Вам бонус

ВАЖНО

!!Акция!!

Alien_RageХит недели

RePack

Resident Evil 21

ИГРА 18+

pack

RePack

jed

!!Акция!!

Alien_Rage

RePack

fifa19

RePack

Assassins Creed: Odyssey

RePack

NEED FOR SPEED™ PAYBACK

3 сезон

9 сезон

Бесстыжие 9 сезон

Все сериалы

все сериалы на PB.wtf

RePack

FAR CRY 5
Ребята, катастрофически не хватает 1900р. для оплаты серверов за Октябрь (всвязи с блокировками трафик упал в 3 раза), 1-2р., выручайте.
  

Мег: Монстр глубины / The Meg (Джон Тёртлтауб) [2018 г., ужасы, фантастика, боевик, триллер, BDRip-AVC] Дубляж - [Лицензия] - ExKinoRay pb.wtf

Мег: Монстр глубины через торрент pb.wtf

Раздают: 5 [ 78 KB/s ]
Размер: 1.45 GB | Добавлен: 1 год назад | Торрент скачан:699 раз
Скачать  

28-11-2018 13:05 Мег: Монстр глубины Скачать торрент  

Информация о фильме
Название: Мег: Монстр глубины
Оригинальное название: The Meg
Год выпуска: 2018
Жанр: Ужасы, фантастика, боевик, триллер
Режиссер: Джон Тёртлтауб
В ролях: Джейсон Стэйтем, Бинбин Ли, Рэйн Уилсон, Клифф Кёртис, Уинстон Чао, Шуя Софиа Цай, Руби Роуз, Пейдж Кеннеди, Роберт Тейлор (II), Оулавюр Дарри Оулафссон, Джессика МакНэми, Маси Ока, Хунмэй Мэй, Витхая Пансрингарм, Роб Уильямс, Таванда Маниймо

Описание:
Глубоководный батискаф, осуществляющий наблюдение в рамках международной программы по изучению подводной жизни, был атакован огромным существом, которое все считали давно вымершим. Неисправный аппарат теперь лежит на дне глубочайшей впадины Тихого океана… с оказавшимся в ловушке экипажем. Их время на исходе. Китайский океанограф-новатор, несмотря на протесты его дочери Суинь, зовет спасателя-подводника Джонаса Тейлора, чтобы тот помог спасти команду и океан от невиданной угрозы — доисторической 23-метровой акулы, мегалодона. Никто и подумать не мог, что много лет назад Тейлор уже сталкивался с этим чудовищным созданием.

rating

Страна: Китай, США
Студия: Apelles Entertainment, Di Bonaventura Pictures, Flagship Entertainment Group
Продолжительность: 01:53:13
Перевод: Дублированный | Лицензия BD 4K EUR

Формат: MKV
Качество: BDRip-AVC
Видео: MPEG-4 AVC, 720x302 (2.40:1), 23.976 fps, 1387 Kbps, 0.266 bit/pixel
Звук:
Аудио: 48 kHz, AC3, 5.1, 448 Kbps | RUS |
Субтитры: Русские (Forced, full), украинские, английские
General
Unique ID : 201256602020468031119361939960552270275 (0x97689C94066FA73684F1E489B398A9C3)
Complete name : D:\The.Meg.2018.BDRip.AVC.ExKinoRay.mkv
Format : Matroska
Format version : Version 2
File size : 1.45 GiB
Duration : 1 h 53 min
Overall bit rate : 1 835 kb/s
Movie name : The Meg 2018 from ExKinoRay
Encoded date : UTC 2018-11-23 02:54:04
Writing application : mkvmerge v5.6.0 ('Kenya Kane') built on May 27 2012 16:44:04
Writing library : libebml v1.2.3 + libmatroska v1.3.0

Video
ID : 1
Format : AVC
Format/Info : Advanced Video Codec
Format profile : High@L4.1
Format settings, CABAC : Yes
Format settings, ReFrames : 12 frames
Codec ID : V_MPEG4/ISO/AVC
Duration : 1 h 53 min
Bit rate : 1 387 kb/s
Width : 720 pixels
Height : 302 pixels
Display aspect ratio : 2.40:1
Frame rate mode : Constant
Frame rate : 23.976 (24000/1001) FPS
Original frame rate : 23.976 (23976/1000) FPS
Color space : YUV
Chroma subsampling : 4:2:0
Bit depth : 8 bits
Scan type : Progressive
Bits/(Pixel*Frame) : 0.266
Stream size : 1.07 GiB (74%)
Title : Enigma
Writing library : x264 core 152 r2851 ba24899
Encoding settings : cabac=1 / ref=12 / deblock=1:-2:-2 / analyse=0x3:0x113 / me=umh / subme=10 / psy=1 / psy_rd=1.02:0.07 / mixed_ref=1 / me_range=32 / chroma_me=1 / trellis=2 / 8x8dct=1 / cqm=0 / deadzone=21,11 / fast_pskip=0 / chroma_qp_offset=-3 / threads=9 / lookahead_threads=2 / sliced_threads=0 / nr=0 / decimate=0 / interlaced=0 / bluray_compat=0 / constrained_intra=0 / bframes=10 / b_pyramid=2 / b_adapt=2 / b_bias=0 / direct=3 / weightb=1 / open_gop=0 / weightp=2 / keyint=240 / keyint_min=23 / scenecut=40 / intra_refresh=0 / rc=2pass / mbtree=0 / bitrate=1387 / ratetol=1.0 / qcomp=0.70 / qpmin=0 / qpmax=51 / qpstep=4 / cplxblur=20.0 / qblur=0.5 / ip_ratio=1.30 / pb_ratio=1.20 / aq=2:0.90
Default : Yes
Forced : No
Color range : Limited
Color primaries : BT.709
Transfer characteristics : BT.709
Matrix coefficients : BT.709

Audio
ID : 2
Format : AC-3
Format/Info : Audio Coding 3
Mode extension : CM (complete main)
Format settings, Endianness : Big
Codec ID : A_AC3
Duration : 1 h 53 min
Bit rate mode : Constant
Bit rate : 448 kb/s
Channel(s) : 6 channels
Channel positions : Front: L C R, Side: L R, LFE
Sampling rate : 48.0 kHz
Frame rate : 31.250 FPS (1536 spf)
Compression mode : Lossy
Stream size : 363 MiB (24%)
Title : Dub (Blu-Ray)
Language : Russian
Default : Yes
Forced : No

Text #1
ID : 3
Format : UTF-8
Codec ID : S_TEXT/UTF8
Codec ID/Info : UTF-8 Plain Text
Title : Forced
Language : Russian
Default : Yes
Forced : No

Text #2
ID : 4
Format : UTF-8
Codec ID : S_TEXT/UTF8
Codec ID/Info : UTF-8 Plain Text
Title : Full
Language : Russian
Default : No
Forced : No

Text #3
ID : 5
Format : UTF-8
Codec ID : S_TEXT/UTF8
Codec ID/Info : UTF-8 Plain Text
Language : Ukrainian
Default : No
Forced : No

Text #4
ID : 6
Format : UTF-8
Codec ID : S_TEXT/UTF8
Codec ID/Info : UTF-8 Plain Text
Language : English
Default : No
Forced : No

Menu
00:00:00.000 : en:Chapter 1
00:08:48.569 : en:Chapter 2
00:18:13.884 : en:Chapter 3
00:27:09.878 : en:Chapter 4
00:39:30.117 : en:Chapter 5
00:49:10.906 : en:Chapter 6
00:58:00.768 : en:Chapter 7
01:08:22.640 : en:Chapter 8
01:19:45.405 : en:Chapter 9
01:30:03.439 : en:Chapter 10
01:42:40.362 : en:Chapter 11
Релиз от:

Автор релиза: pb.wtf



Скачать Мег: Монстр глубины через торрент https://c.radikal.ru/c38/1810/a2/5979f53b8e25.png Скачать фильм Мег: Монстр глубины через торрент бесплантно в хорошем качестве Описание: Глубоководный батискаф, осуществляющий наблюдение в рамках международной программы по изучению подводной жизни, был атакован ... 9.9 10 19
Info! Золотая раздача, скачанное не засчитывается.
Торрент: Зарегистрирован [2018-11-28 13:05] · скачан: 699 раз
Статус: √ проверено
Размер: 1.45 GB
Как cкачать? Как скачать Мег: Монстр глубины через торрент | qTorrent

28-11-2019 20:33  

Отключить всю рекламу на сайте

    Дорогой пользователь! Огромная просьба, поблагодарите релизера, оцените раздачу и оставьте свои комментарий, если Вы скачали Мег: Монстр глубины через торрент бесплатно! Внесите свою лепту в развитие PiratBit!
    Комментировать посты могут только пользователи прошедшие не сложную регистрацию
    Показать сообщения:    

    Мег: Монстр глубины через торрент
    Скачать бесплатно Мег: Монстр глубины
    Мег: Монстр глубины скачать торрент
    Мег: Монстр глубины смотреть онлайн
    Cкачать фильм Мег: Монстр глубины бесплатно
    Мег: Монстр глубины скачать торрент в хорошем качестве
    Мег: Монстр глубины смотреть онлайн бесплатно в хорошем качестве


    Вы не можете начинать темы
    Вы не можете отвечать на сообщения
    Вы не можете редактировать свои сообщения
    Вы не можете удалять свои сообщения
    Вы не можете голосовать в опросах
    Вы не можете прикреплять файлы к сообщениям
    Вы можете скачивать файлы