Доктор Стрэндж

Лицензия

Добыча

MVO

Дом дракона

1 сезон

Тор

Лицензия

Мэверик

Лицензия

Там, где раки поют

MVO

Властелин колец

1 сезон

Ultimate

pack

Рекомендуем

30

Repack

ВАЖНО

ВАЖНО

Ghostwire

RePack

jed

RePack

nioh2

RePack

RDR2

RePack

NEED FOR SPEED™ PAYBACK

RePack

скачать торрент

Кинопоиск HD

Острые козырьки 6 сезон

6 сезон

FAR CRY 6

RePack

скачать торрент

Лицензия

скачать торрент

MVO

1

1 сезон

скачать торрент

1 сезон

скачать торрент

Лицензия

  

Ментовские войны. Харьков / Серии: 1-40 из 40 (Валерий Рожко, Тарас Рыбальченко) [2018, Детектив, криминал, боевик, триллер, WEB-DL 1080p]

Ментовские войны. Харьков через торрент pb.wtf

Размер: 68.95 GB | Добавлен: 3 года 10 мес. назад | Торрент скачан:7 раз
Смотреть онлайн | Скачать   

29-11-2018 04:33 Ментовские войны. Харьков Скачать торрент  

Ментовские войны. Харьков Год выпуска: 2018
Страна: Украина
Жанр: Детектив, криминал, боевик, триллер
Продолжительность: 00:46:00
Перевод: Не требуется
Субтитры: отсутствуют

Режиссер: Валерий Рожко, Тарас Рыбальченко



В ролях:

Артем Позняк, Богдан Юсипчук, Сергей Листунов, Танита Малкова, Анастасия Рула

Описание:

Это продолжение культовой саги про отважных, харизматичных и справедливых сотрудников уголовного розыска. Троица верных своему делу друзей – руководитель уголовного розыска Харьковского ГУВД Андрей Гордиенко, Богдан Харченко и Дмитрий Воронов каждый день принимают сложные вызовы криминального мира: запутанные убийства, вооруженные нападения, подлость в рядах силовиков и смертельно опасные задания. С холодным умом и отвагой они всегда пытаются быть объективными, но когда мишенью бандитов становятся близкие люди, героям все труднее избегать ошибок…Особенно тяжело им будут даваться дела, в которых замешаны «оборотни в погонах» - сотрудники структур, которые должны защищать граждан, а не наоборот. Новый сезон должен понравится вам еще больше за два предыдущих проекта, действия которых разворачивались в Одессе и Киеве. К тому же, вы сможете испытать свои силы в решении запутанных дел – вдруг, вы поймете, кто именно является преступником, раньше, чем главные герои сериала?

Качество: WEB-DL 1080p
Формат: MKV

Видео: MPEG-4 AVC, ~ 5105 Кбит/с, 1920x1080, 25,000 кадров/сек, 0.098 bit/pixel
Аудио: 48.0 kHz, AC3 Dolby Digital, 2/0 (L,R) ch, ~ 192 kbps
скриншот  скриншот  скриншот  скриншот  

Общее
Уникальный идентификатор : 226273160610455199309993004425281458833 (0xAA3AA024E6F1F1FCB13377988E5ED291)
Полное имя : E:\Mentovskie.voyny. Kharkiv.2018.WEB-DL.(1080p).Nikolspup\Mentovskie.voyny. Kharkiv.(01.seriya).2018.WEB-DL.(1080p).Nikolspup.mkv
Формат : Matroska
Версия формата : Version 4
Размер файла : 1,71 Гбайт
Продолжительность : 46 м. 14 с.
Общий поток : 5299 Кбит/сек
Дата кодирования : UTC 2018-09-26 16:08:51
Программа кодирования : mkvmerge v7.8.0 ('River Man') 32bit built on Mar 27 2015 16:18:02
Библиотека кодирования : libebml v1.3.1 + libmatroska v1.4.2

Видео
Идентификатор : 1
Формат : AVC
Формат/Информация : Advanced Video Codec
Профиль формата : [email protected]
Настройки формата : CABAC / 4 Ref Frames
Параметр CABAC формата : Да
Параметр RefFrames формата : 4 кадра
Идентификатор кодека : V_MPEG4/ISO/AVC
Продолжительность : 46 м. 14 с.
Битрейт : 5105 Кбит/сек
Ширина : 1920 пикселей
Высота : 1080 пикселей
Соотношение сторон : 16:9
Режим частоты кадров : Постоянный
Частота кадров : 25,000 кадров/сек
Цветовое пространство : YUV
Субдискретизация насыщенности : 4:2:0
Битовая глубина : 8 бит
Тип развёртки : Прогрессивная
Бит/(Пиксели*Кадры) : 0.098
Размер потока : 1,65 Гбайт (96%)
Default : Да
Forced : Нет

Аудио
Идентификатор : 2
Формат : AC-3
Формат/Информация : Audio Coding 3
Коммерческое название : Dolby Digital
Идентификатор кодека : A_AC3
Продолжительность : 46 м. 14 с.
Вид битрейта : Постоянный
Битрейт : 192 Кбит/сек
Каналы : 2 канала
Channel layout : L R
Частота : 48,0 КГц
Частота кадров : 31,250 кадров/сек (1536 SPF)
Битовая глубина : 16 бит
Метод сжатия : С потерями
Размер потока : 63,5 Мбайт (4%)
Язык : Russian
ServiceKind/String : Complete Main
Default : Да
Forced : Нет




Скачать Ментовские войны. Харьков через торрент https://i89.fastpic.ru/big/2018/0925/67/d0b765af18c3c52e3ecb0026f6556567.jpg Скачать, смотреть онлайн Ментовские войны. Харьков бесплантно в хорошем качестве Описание: Это продолжение культовой саги про отважных, харизматичных и справедливых сотрудников уголовного розыска. Троица верных своему ... 10 10 4
Info! Золотая раздача, скачанное не засчитывается.
Торрент: Зарегистрирован [2018-11-29 04:33] · скачан: 7 раз
Статус: √ проверено
Размер: 68.95 GB
Как cкачать? Как скачать Ментовские войны. Харьков через торрент | UTorrent

% Раздел Тема Автор DL S | L
Наши сериалы [ 17.78 GB ] Ментовские войны. Харьков / Сезон: 2 / Серии: 1-32 из 32 | | WEBRip killermax2013 Скачать
1 | 0
Наши сериалы [ 21.76 GB ] Ментовские войны. Харьков / Серии: 1-40 из 40 | | SATRip-AVC bober100 Скачать
1 | 0
Наши сериалы [ 35.01 GB ] Ментовские войны. Харьков / Серии: 1-40 из 40 | | Ментовские войны. Харьков / Серии: 1-40 из 40 (Валерий Рожко, Тарас Рыбальченко bober100 Скачать
1 | 0
Наши сериалы [ 23.56 GB ] Ментовские войны. Харьков / Серии: 1-40 из 40 | | DLRip-AVC bober100 Скачать
1 | 0

28-11-2019 20:33  


Отключить вcю реклaмy на сайте, в т.ч. и в плеере онлайн просмотра!

    Дорогой пользователь! Огромная просьба, поблагодарите релизера, оцените раздачу и оставьте свои комментарий, если Вы скачали Ментовские войны. Харьков через торрент бесплатно!!
    Комментировать посты могут только пользователи прошедшие не сложную регистрацию
    Показать сообщения:    


    Ментовские войны. Харьков через торрент
    Скачать бесплатно Ментовские войны. Харьков
    Ментовские войны. Харьков скачать торрент
    Ментовские войны. Харьков смотреть онлайн
    Cкачать фильм Ментовские войны. Харьков бесплатно
    Ментовские войны. Харьков скачать торрент в хорошем качестве
    Ментовские войны. Харьков смотреть онлайн бесплатно в хорошем качестве
    Вы не можете начинать темы
    Вы не можете отвечать на сообщения
    Вы не можете редактировать свои сообщения
    Вы не можете удалять свои сообщения
    Вы не можете голосовать в опросах
    Вы не можете прикреплять файлы к сообщениям
    Вы можете скачивать файлы