новый адрес
Ссылка на приватное зеркало всего за 1$. Внимание количество ограничено!!!

iTunes

1+1

iTunes

мы

WEB-DL

1

iTunes

Чернобыль

iTunes

Ральф против интернета

Лицензия

ПШазам

Лицензия

Оно 2

Лицензия

30
pack

Вам бонус

ВАЖНО

!!Акция!!

Alien_RageХит недели

RePack

Resident Evil 21

ИГРА 18+

pack

RePack

jed

!!Акция!!

Alien_Rage

RePack

fifa19

RePack

Assassins Creed: Odyssey

RePack

NEED FOR SPEED™ PAYBACK

3 сезон

9 сезон

Бесстыжие 9 сезон

Все сериалы

все сериалы на PB.wtf

RePack

FAR CRY 5
Ребята, катастрофически не хватает 1900р. для оплаты серверов за Октябрь (всвязи с блокировками трафик упал в 3 раза), 1-2р., выручайте.
  

Вечер с Беверли Лафф Линн / An Evening with Beverly Luff Linn (Джим Хоскин) [2018, Комедия, криминал, HDRip] MVO [HDrezka Studio] pb.wtf

Вечер с Беверли Лафф Линн через торрент pb.wtf

Раздают: 1 [ 0 KB/s ]
Размер: 1.46 GB | Добавлен: 1 год назад | Торрент скачан:139 раз
Скачать  

29-11-2018 06:03 Вечер с Беверли Лафф Линн Скачать торрент  

Вечер с Беверли Лафф Линн / An Evening with Beverly Luff Linn Год выпуска: 2018
Страна: Великобритания , США
Жанр: Комедия, криминал
Продолжительность: 01:48:08
Перевод: Профессиональный (многоголосый) | HDRezka Studio
Субтитры: отсутствуют

Режиссер: Джим Хоскин

rating скриншот  

В ролях:

Обри Плаза, Джемейн Клемент, Эмиль Хирш, Крэйг Робинсон, Мэтт Берри, Мария Бэмфорд, Майкл Коэн, Зак Черри, Скай Элобар, Джакоб Уайсоки

Описание:

Уволенная с работы собственным мужем Лулу Денджер теперь целыми днями валяется на диване перед телевизором. Однажды она видит по телевидению рекламу некоего «Волшебного вечера с Беверли Лафф Линн» в отеле неподалёку. Этот мужчина когда-то очень много для неё значил, и, используя подвернувшуюся возможность — незнакомца с пистолетом, пришедшего забрать деньги у её мужа, которые тот украл у её брата, — Лулу сбегает из дома и направляется в тот отель навстречу судьбе.

Качество: HDRip
Формат: AVI

Видео: 704x384 (1.85:1), 23.976 fps, XviD build 73 ~1 735 kbps avg
Аудио: 48.0 kHz, AC3 Dolby Digital, 2/0 (L,R) ch, ~192 kbps
скриншот  скриншот  скриншот  

General
Формат : AVI
Формат/Информация : Audio Video Interleave
Размер файла : 1,46 Гбайт
Продолжительность : 1 ч. 47 м.
Общий поток : 1937 Кбит/сек
Программа кодирования : VirtualDubMod 1.5.10.3 | (build 2550/release)
Библиотека кодирования : VirtualDubMod build 2550/release

Видео
Идентификатор : 0
Формат : MPEG-4 Visual
Профиль формата : Advanced Simple@L5
Настройки формата : BVOP1 / Custom Matrix
Параметр BVOP формата : 1
Параметр QPel формата : Нет
Параметр GMC формата : Без точки перехода
Параметр матрицы формата : Выборочная
Идентификатор кодека : XVID
Идентификатор кодека/Подсказка : XviD
Продолжительность : 1 ч. 47 м.
Битрейт : 1735 Кбит/сек
Ширина : 704 пикселя
Высота : 384 пикселя
Соотношение сторон : 1,85:1
Частота кадров : 24,000 кадра/сек
Цветовое пространство : YUV
Субдискретизация насыщенности : 4:2:0
Битовая глубина : 8 бит
Тип развёртки : Прогрессивная
Метод сжатия : С потерями
Бит/(Пиксели*Кадры) : 0.267
Размер потока : 1,30 Гбайт (90%)
Библиотека кодирования : XviD 73

Аудио
Идентификатор : 1
Формат : AC-3
Формат/Информация : Audio Coding 3
Коммерческое название : Dolby Digital
Идентификатор кодека : 2000
Продолжительность : 1 ч. 47 м.
Вид битрейта : Постоянный
Битрейт : 192 Кбит/сек
Каналы : 2 канала
Channel layout : L R
Частота : 48,0 КГц
Частота кадров : 31,250 кадров/сек (1536 SPF)
Битовая глубина : 16 бит
Метод сжатия : С потерями
Размер потока : 148 Мбайт (10%)
Выравнивание : Разделение по промежуткам
Продолжительность промежутка : 42 мс. (1,00 видеокадр)
Время предзагрузки промежутка : 500 мс.

pb.wtf



Скачать Вечер с Беверли Лафф Линн через торрент http://img11.lostpic.net/2018/11/29/8f687331b1f6480ddd65d07012f9623d.png Скачать фильм Вечер с Беверли Лафф Линн через торрент бесплантно в хорошем качестве Описание: Уволенная с работы собственным мужем Лулу Денджер теперь целыми днями валяется на диване перед телевизором. Однажды она видит по ... 7.5 10 8
Торрент: Зарегистрирован [2018-11-29 06:03] · скачан: 139 раз
Статус: T временная
Размер: 1.46 GB
Как cкачать? Как скачать Вечер с Беверли Лафф Линн через торрент | qTorrent

% Раздел Тема Автор DL S | L
T Фильмы 2018 [DVDrip, WEB-DLRip, HDrip] (DUB, MVO) [ 2.17 GB ] Вечер с Беверли Лафф Линн / An Evening with Beverly Luff Linn [2018 BDRip-AVC] MVO [HDRezka Studio] bober100 Скачать
3 | 0

28-11-2019 20:33  

Отключить всю рекламу на сайте

    Дорогой пользователь! Огромная просьба, поблагодарите релизера, оцените раздачу и оставьте свои комментарий, если Вы скачали Вечер с Беверли Лафф Линн через торрент бесплатно! Внесите свою лепту в развитие PiratBit!
    Комментировать посты могут только пользователи прошедшие не сложную регистрацию
    Показать сообщения:    

    Вечер с Беверли Лафф Линн через торрент
    Скачать бесплатно Вечер с Беверли Лафф Линн
    Вечер с Беверли Лафф Линн скачать торрент
    Вечер с Беверли Лафф Линн смотреть онлайн
    Cкачать фильм Вечер с Беверли Лафф Линн бесплатно
    Вечер с Беверли Лафф Линн скачать торрент в хорошем качестве
    Вечер с Беверли Лафф Линн смотреть онлайн бесплатно в хорошем качестве


    Вы не можете начинать темы
    Вы не можете отвечать на сообщения
    Вы не можете редактировать свои сообщения
    Вы не можете удалять свои сообщения
    Вы не можете голосовать в опросах
    Вы не можете прикреплять файлы к сообщениям
    Вы можете скачивать файлы