Ссылка на приватное зеркало всего за 1$. Внимание количество ограничено!!!

OK

1+1

iTunes

мы

OK

1

WEB-DLRip

Джокер

Пифагор

Ведьмак / The Witcher сериал

iTunes

ПШазам

ОК

Оно 2

iTunes

30
pack

Вам бонус

ВАЖНО

!!Акция!!

Alien_RageХит недели

RePack

Resident Evil 21

ИГРА 18+

pack

RePack

jed

RePack

fifa19

RePack

Assassins Creed: Odyssey

RePack

NEED FOR SPEED™ PAYBACK

4 сезон

9 сезон

Бесстыжие 9 сезон

Все сериалы

все сериалы на PB.wtf

RePack

FAR CRY 5
  

Смейся или умри / Suomen hauskin mies (Хейкки Куянпяя) [2018 г., Драма, военный, история, HDRip, Любительский (многоголосый)(Синема УС)] pb.wtf

Смейся или умри через торрент pb.wtf

Размер: 1.32 GB | Добавлен: 1 год 1 мес. назад | Торрент скачан:68 раз
Скачать  

29-11-2018 07:55 Смейся или умри Скачать торрент  

Смейся или умри / Suomen hauskin mies
Год выпуска: 2018
Страна: Финляндия, Швеция
Жанр: Драма, военный, история
Продолжительность: 01:42:29
Перевод: Любительский (многоголосый)(Синема УС)
Субтитры: Отсутствуют

Режиссер: Хейкки Куянпяя

rating

В ролях: Мартти Суосало, Яни Воланен, Лиина Пёвсти, Пааво Киннунен, Веса Вьерикко, Юсси Лехтонен, Юсси Никкиля, Томми Эронен, Пану Вауконен

Описание: 1918 год. Финляндия после Гражданской войны. Знаменитый актер Парикка, считающийся лучшим комиком в стране, схвачен и отправлен в лагерь, где уже томятся его товарищи в ожидании смерти. Все «красные» будут казнены. Положение Парикки оказывается хуже всех: узники считают его предателем. Неожиданно комендант лагеря делает предложение актерам. Если они подготовят хорошее выступление для немецких гостей лагеря, их не расстреляют. Как отреагируют на это актеры?

Доп. информация: Присутствуют вставки текстовой рекламы

Качество: HDRip
Формат: AVI
Видео кодек: XviD
Аудио кодек: AC3
Видео: XviD, 720x304, ~1577 Kbps
Аудио#1: AC-3, 2 ch, 256 Kbps
скриншот   скриншот   скриншот   скриншот  

Общее
Полное имя : E:\NNM\Смейся или умри\Suomen hauskin mies 2018 HDRip.avi
Формат : AVI
Формат/Информация : Audio Video Interleave
Профиль формата : OpenDML
Размер файла : 1,32 Гбайт
Продолжительность : 1 ч. 42 м.
Общий поток : 1845 Кбит/сек

Видео
Идентификатор : 0
Формат : MPEG-4 Visual
Профиль формата : Advanced Simple@L5
Настройки формата : BVOP2 / Custom Matrix
Параметр BVOP формата : 2
Параметр QPel формата : Нет
Параметр GMC формата : Без точки перехода
Параметр матрицы формата : Выборочная
Идентификатор кодека : XVID
Идентификатор кодека/Подсказка : XviD
Продолжительность : 1 ч. 42 м.
Битрейт : 1577 Кбит/сек
Ширина : 720 пикселей
Высота : 304 пикселя
Соотношение сторон : 2,35:1
Частота кадров : 23,976 (24000/1001) кадра/сек
Цветовое пространство : YUV
Субдискретизация насыщенности : 4:2:0
Битовая глубина : 8 бит
Тип развёртки : Прогрессивная
Метод сжатия : С потерями
Бит/(Пиксели*Кадры) : 0.300
Размер потока : 1,13 Гбайт (85%)
Библиотека кодирования : XviD 1.2.1 (UTC 2008-12-04)

Аудио
Идентификатор : 1
Формат : AC-3
Формат/Информация : Audio Coding 3
Идентификатор кодека : 2000
Продолжительность : 1 ч. 42 м.
Вид битрейта : Постоянный
Битрейт : 256 Кбит/сек
Каналы : 2 канала
Расположение каналов : Front: L R
Частота : 48,0 КГц
Частота кадров : 31,250 кадров/сек (1536 SPF)
Битовая глубина : 16 бит
Метод сжатия : С потерями
Размер потока : 188 Мбайт (14%)
Выравнивание : Соединение по промежуткам
Продолжительность промежутка : 32 мс. (0,77 видеокадр)
ServiceKind/String : Complete Main

pb.wtf



Скачать Смейся или умри через торрент http://pic1.kartinco.top/images/11/71mpy.jpg Скачать фильм Смейся или умри через торрент бесплантно в хорошем качестве Описание: 1918 год. Финляндия после Гражданской войны. Знаменитый актер Парикка, считающийся лучшим комиком в стране, схвачен и отправлен в ... 10 10 2
Торрент: Зарегистрирован [2018-11-29 07:55] · скачан: 68 раз
Статус: T временная
Размер: 1.32 GB
Как cкачать? Как скачать Смейся или умри через торрент | qTorrent

% Раздел Тема Автор DL S | L
# Фильмы (мультфильмы) cо спонсором показа (Новинки AVI/MKV) [ 5.22 GB ] Смейся или умри / Suomen hauskin mies [2018 военный история BDRip 720p] MVO ["Синема УС"] bober100 Скачать
1 | 0

28-11-2019 20:33  

Отключить всю рекламу на сайте

    Дорогой пользователь! Огромная просьба, поблагодарите релизера, оцените раздачу и оставьте свои комментарий, если Вы скачали Смейся или умри через торрент бесплатно! Внесите свою лепту в развитие PiratBit!
    Комментировать посты могут только пользователи прошедшие не сложную регистрацию
    Показать сообщения:    

    Смейся или умри через торрент
    Скачать бесплатно Смейся или умри
    Смейся или умри скачать торрент
    Смейся или умри смотреть онлайн
    Cкачать фильм Смейся или умри бесплатно
    Смейся или умри скачать торрент в хорошем качестве
    Смейся или умри смотреть онлайн бесплатно в хорошем качестве


    Вы не можете начинать темы
    Вы не можете отвечать на сообщения
    Вы не можете редактировать свои сообщения
    Вы не можете удалять свои сообщения
    Вы не можете голосовать в опросах
    Вы не можете прикреплять файлы к сообщениям
    Вы можете скачивать файлы