новый адрес
Ссылка на приватное зеркало всего за 1$. Внимание количество ограничено!!!

iTunes

1+1

iTunes

мы

iTunes

1

iTunes

Чернобыль

iTunes

Ральф против интернета

Лицензия

ПШазам

Лицензия

Оно 2

Лицензия

30
pack

Вам бонус

ВАЖНО

!!Акция!!

Alien_RageХит недели

RePack

Resident Evil 21

ИГРА 18+

pack

RePack

jed

!!Акция!!

Alien_Rage

RePack

fifa19

RePack

Assassins Creed: Odyssey

RePack

NEED FOR SPEED™ PAYBACK

3 сезон

9 сезон

Бесстыжие 9 сезон

Все сериалы

все сериалы на PB.wtf

RePack

FAR CRY 5
Ребята, катастрофически не хватает 1900р. для оплаты серверов за Октябрь (всвязи с блокировками трафик упал в 3 раза), 1-2р., выручайте.
  

Вашингтонская история (Исидор Анненский) [1962, СССР, драма, SATRip от AVP Studio] pb.wtf

Вашингтонская история через торрент pb.wtf

Размер: 1.46 GB | Добавлен: 11 мес. назад | Торрент скачан:7 раз
Скачать  

29-11-2018 09:11 Вашингтонская история Скачать торрент  

Вашингтонская история
Страна: СССР
Производство: Главная редакция литературно-драматических программ ЦТ, Гостелерадио СССР

Жанр: драма
Год выпуска: 1962
Продолжительность: 01:44:40

Перевод: Не требуется
Cубтитры: нет
Оригинальная аудиодорожка: русский

Режиссер: Исидор Анненский

В ролях:
Татьяна Конюхова, Никита Подгорный, Софья Фадеева, Анатолий Ларионов, Константин Мякишев, Николай Светловидов, Юрий Васильев, Дмитрий Павлов, Сергей Конов, Варвара Обухова, Виктор Шарлахов, Владимир Кенигсон, Александр Грузинский, Елена Кузнецова, Таня Шатова, Евгений Буренков, Валентина Архангельская, Людмила Пирогова, Борис Телегин, Владимир Головин...
Об актёрах подробней

Описание:
Спектакль по мотивам романа Джея Дайса "Вашингтонская история".
Служащая одного из отделов Госдепартамента США Фэйс Вэнс получает вызов в комиссию по расследованию антиамериканской деятельности. И вполне благополучная, спокойная жизнь начинает рушиться.
Но Фэйс не опускает руки, она борется за свои права.

Исходник: DVB
Качество видео: SATRip
Формат видео: AVI

Видео: 704x528 (4:3), 25,000 кадров/сек, XviD ~ 1795 kbps avg, 0.193 bit/pixel
Аудио: 48 kHz, Dolby Digital AC3 2.0, 192 kbps

Раздача от:
Общее
Полное имя : Vashingtonskaya.istoriya.1962.SATRip_[New-team]_by_AVP_Studio.avi
Формат : AVI
Формат/Информация : Audio Video Interleave
Размер файла : 1,46 Гбайт
Продолжительность : 1 ч. 44 м.
Общий поток : 1997 Кбит/сек
Программа кодирования : VirtualDubModRus 1.5.10.2 (build 2540/release)
Библиотека кодирования : VirtualDubMod build 2540/release

Видео
Идентификатор : 0
Формат : MPEG-4 Visual
Профиль формата : Advanced Simple@L5
Настройки формата : BVOP1 / Custom Matrix
Параметр BVOP формата : 1
Параметр QPel формата : Нет
Параметр GMC формата : Без точки перехода
Параметр матрицы формата : Выборочная
Идентификатор кодека : XVID
Идентификатор кодека/Подсказка : XviD
Продолжительность : 1 ч. 44 м.
Битрейт : 1795 Кбит/сек
Ширина : 704 пикселя
Высота : 528 пикселей
Соотношение сторон : 4:3
Частота кадров : 25,000 кадров/сек
Цветовое пространство : YUV
Субдискретизация насыщенности : 4:2:0
Битовая глубина : 8 бит
Тип развёртки : Прогрессивная
Метод сжатия : С потерями
Бит/(Пиксели*Кадры) : 0.193
Размер потока : 1,31 Гбайт (90%)
Библиотека кодирования : XviD 73

Аудио
Идентификатор : 1
Формат : AC-3
Формат/Информация : Audio Coding 3
Коммерческое название : Dolby Digital
Идентификатор кодека : 2000
Продолжительность : 1 ч. 44 м.
Вид битрейта : Постоянный
Битрейт : 192 Кбит/сек
Каналы : 2 канала
Channel layout : L R
Частота : 48,0 КГц
Частота кадров : 31,250 кадров/сек (1536 SPF)
Битовая глубина : 16 бит
Метод сжатия : С потерями
Размер потока : 144 Мбайт (10%)
Выравнивание : Соединение по промежуткам
Продолжительность промежутка : 40 мс. (1,00 видеокадр)
Время предзагрузки промежутка : 512 мс
pb.wtf



Скачать Вашингтонская история через торрент http://picplus.ru/img/1811/29/4886dbd9.png Скачать фильм Вашингтонская история через торрент бесплантно в хорошем качестве Описание:Спектакль по мотивам романа Джея Дайса "Вашингтонская история".Служащая одного из отделов Госдепартамента США Фэйс Вэнс получает ... 5 10 1
Info! Золотая раздача, скачанное не засчитывается.
Торрент: Зарегистрирован [2018-11-29 09:11] · скачан: 7 раз
Статус: √ проверено
Размер: 1.46 GB
Как cкачать? Как скачать Вашингтонская история через торрент | qTorrent

% Раздел Тема Автор DL S | L
Кино СССР [ 1.46 GB ] Вашингтонская история [1962 СССР SATRip-AVC от AVP Studio] AVP Studio Скачать
1 | 0
    Дорогой пользователь! Огромная просьба, поблагодарите релизера, оцените раздачу и оставьте свои комментарий, если Вы скачали Вашингтонская история через торрент бесплатно! Внесите свою лепту в развитие PiratBit!
    Комментировать посты могут только пользователи прошедшие не сложную регистрацию
    Показать сообщения:    

    Вашингтонская история через торрент
    Скачать бесплатно Вашингтонская история
    Вашингтонская история скачать торрент
    Вашингтонская история смотреть онлайн
    Cкачать фильм Вашингтонская история бесплатно
    Вашингтонская история скачать торрент в хорошем качестве
    Вашингтонская история смотреть онлайн бесплатно в хорошем качестве


    Вы не можете начинать темы
    Вы не можете отвечать на сообщения
    Вы не можете редактировать свои сообщения
    Вы не можете удалять свои сообщения
    Вы не можете голосовать в опросах
    Вы не можете прикреплять файлы к сообщениям
    Вы можете скачивать файлы