Мега распродажа FORZA HORIZON 4 ULTIMATE+ВСЕ DLC+ОНЛАЙН всего за 499р. 349 руб. (супер цена). Внимание количество ограничено!!!

Лицензия

30

iTunes

мы

iTunes

1

1 сезон

Чернобыль

1 сезон

Ральф против интернета

MVO

Покемон. Детектив Пикачу

8 сезон

Игра престолов

iTunes

1+1

ИГРА 18+

pack

ВАЖНО

!!Акция!!

Alien_RageХит недели

RePack

Resident Evil 21
pack

RePack

Metro:Exodus

!!Акция!!

Alien_Rage

RePack

fifa19

RePack

Assassins Creed: Odyssey

RePack

NEED FOR SPEED™ PAYBACK

3 сезон

9 сезон

Бесстыжие 9 сезон

Все сериалы

все сериалы на PB.wtf

RePack

FAR CRY 5
Ребята, катастрофически не хватает 2730р. для оплаты серверов за МАЙ (всвязи с блокировками трафик упал в 3 раза), 1-2р., выручайте.
  

Викинги / Vikings / Сезон: 5 / Серии: 1-20 из 20 (Киаран Доннелли, Йохан Ренк, Кен Джиротти) [2017, боевик, драма, военный, история, WEBRip 1080p] MVO [GostFilm] pb.wtf

Викинги через торрент pb.wtf

Качают: 1 [ 0 KB/s ]
Размер: 39.63 GB | Добавлен: 4 мес. 16 д. назад | Торрент скачан:22 раза
Скачать  

29-11-2018 13:38 Викинги Скачать торрент  

Викинги / VikingsГод выпуска: 2017
Страна: Ирландия, Канада
Жанр: боевик, драма, военный, история
Продолжительность: ~ 00:44:00
Перевод: Любительский (многоголосый) |
Субтитры: Английские

Режиссер: Киаран Доннелли, Йохан Ренк, Кен Джиротти

rating

В ролях:

Трэвис Фиммел, Клайв Стэнден, Кэтрин Уинник, Гэбриел Бирн, Джессалин Гилсиг, Густаф Скарсгард, Джефферсон Холл, Джордж Благден, Тадж Мерфи, Диармэйд Мурта

Описание:

Исторический сериал «Викинги» от создателя «Тюдоров» и продюсера «Камелота» и «Борджиа» Майкла Херста расскажет о путешествиях легендарного героя скандинавских саг Рагнара Лодброка, а также о превращении молодого викинга в мудрого правителя, которого сравнивали с самим богом войны Одином. Проект канала History может похвастаться яркими персонажами, красивыми натурными съемками и эпичными батальными сценами.

Качество: WEBRip 1080p
Формат: MKV

Видео: ~ 12.5 Mб/с, 1920x1080, 23.970 fps
Аудио#1: Русский (AC3, 2 ch, 192 Кбит/с)
Аудио#2: английский (DTS, 6 ch, 1509 Кбит/с)
скриншот  скриншот  скриншот  скриншот  

Общее
Уникальный идентификатор : 215274643534546476366073315273216622696 (0xA1F46362B778D541D26CF4FD95280068)
Полное имя : D:\Vikings.S05.1080p.GostFilm\Vikings.S05E01.1080p.GostFilm.mkv
Формат : Matroska
Версия формата : Version 4 / Version 2
Размер файла : 4,43 Гбайт
Продолжительность : 45 м. 51 с.
Общий поток : 13,8 Мбит/сек
Дата кодирования : UTC 2018-08-20 17:05:42
Программа кодирования : mkvmerge v22.0.0 ('At The End Of The World') 64-bit
Библиотека кодирования : libebml v1.3.5 + libmatroska v1.4.8

Видео
Идентификатор : 1
Формат : AVC
Формат/Информация : Advanced Video Codec
Профиль формата : High@L4.1
Параметр CABAC формата : Да
Параметр RefFrames формата : 4 кадра
Идентификатор кодека : V_MPEG4/ISO/AVC
Продолжительность : 45 м. 51 с.
Битрейт : 12,1 Мбит/сек
Ширина : 1920 пикселей
Высота : 1080 пикселей
Соотношение сторон : 16:9
Режим частоты кадров : Постоянный
Частота кадров : 23,976 (24000/1001) кадра/сек
Цветовое пространство : YUV
Субдискретизация насыщенности : 4:2:0
Битовая глубина : 8 бит
Тип развёртки : Прогрессивная
Бит/(Пиксели*Кадры) : 0.244
Размер потока : 3,89 Гбайт (88%)
Библиотека кодирования : x264 core 155
Настройки программы : cabac=1 / ref=4 / deblock=1:-3:-3 / analyse=0x3:0x113 / me=umh / subme=11 / psy=1 / psy_rd=1.05:0.05 / mixed_ref=1 / me_range=48 / chroma_me=1 / trellis=2 / 8x8dct=1 / cqm=0 / deadzone=6,6 / fast_pskip=0 / chroma_qp_offset=-3 / threads=26 / lookahead_threads=6 / sliced_threads=0 / nr=0 / decimate=0 / interlaced=0 / bluray_compat=0 / constrained_intra=0 / bframes=11 / b_pyramid=2 / b_adapt=2 / b_bias=0 / direct=3 / weightb=1 / open_gop=0 / weightp=2 / keyint=250 / keyint_min=23 / scenecut=40 / intra_refresh=0 / rc_lookahead=60 / rc=2pass / mbtree=0 / bitrate=12148 / ratetol=1.0 / qcomp=0.70 / qpmin=0 / qpmax=69 / qpstep=4 / cplxblur=20.0 / qblur=0.5 / vbv_maxrate=50000 / vbv_bufsize=62500 / nal_hrd=none / filler=0 / ip_ratio=1.10 / pb_ratio=1.10 / aq=3:0.75
Язык : English
Default : Да
Forced : Нет

Аудио #1
Идентификатор : 2
Формат : AC-3
Формат/Информация : Audio Coding 3
Расширение режима : CM (complete main)
Параметр Endianness формата : Big
Идентификатор кодека : A_AC3
Продолжительность : 45 м. 51 с.
Вид битрейта : Постоянный
Битрейт : 192 Кбит/сек
Каналы : 2 канала
Расположение каналов : Front: L R
Частота : 44,1 КГц
Частота кадров : 28,711 кадров/сек (1536 spf)
Метод сжатия : С потерями
Размер потока : 63,0 Мбайт (1%)
Заголовок : GostFilm
Default : Да
Forced : Да

Аудио #2
Идентификатор : 3
Формат : DTS
Формат/Информация : Digital Theater Systems
Режим : 16
Параметр Endianness формата : Big
Идентификатор кодека : A_DTS
Продолжительность : 45 м. 51 с.
Вид битрейта : Постоянный
Битрейт : 1509 Кбит/сек
Каналы : 6 каналов
Расположение каналов : Front: L C R, Side: L R, LFE
Частота : 48,0 КГц
Частота кадров : 93,750 кадра/сек (512 spf)
Битовая глубина : 24 бит
Метод сжатия : С потерями
Размер потока : 495 Мбайт (11%)
Язык : English
Default : Нет
Forced : Нет

Текст #1
Идентификатор : 4
Формат : UTF-8
Идентификатор кодека : S_TEXT/UTF8
Идентификатор кодека/Информация : UTF-8 Plain Text
Продолжительность : 42 м. 36 с.
Битрейт : 36 бит/сек
ElementCount : 422
Размер потока : 11,2 Кбайт (0%)
Заголовок : English
Язык : English
Default : Нет
Forced : Нет

Текст #2
Идентификатор : 5
Формат : UTF-8
Идентификатор кодека : S_TEXT/UTF8
Идентификатор кодека/Информация : UTF-8 Plain Text
Продолжительность : 44 м. 52 с.
Битрейт : 44 бит/сек
ElementCount : 576
Размер потока : 14,8 Кбайт (0%)
Заголовок : English (SDH)
Язык : English
Default : Нет
Forced : Нет

Меню
00:00:00.000 : en:00:00:00.000
00:04:50.248 : en:00:04:50.248
00:07:38.667 : en:00:07:38.667
00:12:11.773 : en:00:12:11.773
00:14:58.272 : en:00:14:58.272
00:18:24.228 : en:00:18:24.228
00:21:18.360 : en:00:21:18.360
00:25:57.723 : en:00:25:57.723
00:28:17.154 : en:00:28:17.154
00:31:14.289 : en:00:31:14.289
00:38:06.659 : en:00:38:06.659
00:44:50.021 : en:00:44:50.021

Внимание! Раздача ведётся путём добавления новых серий; при каждом добавлении создаётся новый торрент. Чтобы начать докачку новой серии, пользователям необходимо сделать следующее:
(1) остановить скачивание,
(2) удалить старый торрент у себя из клиента (старые серии удалять не надо),
(3) скачать новый торрент и запустить его у себя в клиенте вместо старого, при этом указать клиенту путь в старую папку куда и должно происходить скачивание новых серий.
Ваш клиент при этом должен произвести хеширование (проверку) старой папки (если не производит сам - помогите ему сделать это), и будет докачивать только те серии которых у вас ещё нет. Старые серии при этом не удаляются, а продолжают раздаваться!
Eсли вы уже удалили старые серии, то предотвратить повторную закачку старых серий можно, отжав галочку в соответствующих местах при запуске нового торрента. По возможности, желательно не удалять старые серии как можно дольше чтобы релизёр не столько продолжал раздавать старые серии, а смог сконцентрироваться на новых.
pb.wtf



Скачать Викинги через торрент http://lostpix.com/img/2018-11/29/dqzrlnh8szrpqbv53nfjy83kh.jpg Скачать фильм Викинги через торрент бесплантно в хорошем качестве Описание: Исторический сериал «Викинги» от создателя «Тюдоров» и продюсера «Камелота» и «Борджиа» Майкла Херста расскажет о путешествиях ... 10 10 13
Info! Золотая раздача, скачанное не засчитывается.
Торрент: Зарегистрирован [2019-01-31 05:52] · скачан: 22 раз
Статус: √ проверено
Размер: 39.63 GB
Как cкачать? Как скачать Викинги через торрент | qTorrent

% Раздел Тема Автор DL S | L
Зарубежные сериалы [ 10.89 GB ] Викинги / Vikings / Сезон: 5 / Серии: 1-20 из 20 [2017 военный история WEB-DLRip] MVO [NewStudio] bober100 Скачать
8 | 1
Зарубежные сериалы [ 42.7 GB ] Викинги / Vikings / Сезон: 5 / Серии: 1-20 из 20 [2017 военный история WEB-DL 1080p] MVO [Lostfilm] bober100 Скачать
3 | 3
Зарубежные сериалы [ 10.69 GB ] Викинги / Vikings / Сезон: 5 / Серии: 1-20 из 20 [2017 военный история WEB-DLRip] MVO [AlexFilm] bober100 Скачать
7 | 1
Зарубежные сериалы [ 20.53 GB ] Викинги / Vikings / Сезон: 5 / Серии: 1-20 из 20 [2017 военный история WEB-DL 720p HDTVRip 720p] MVO [Jaskier] bober100 Скачать
1 | 0
Зарубежные сериалы [ 21.33 GB ] Викинги / Vikings / Сезон: 5 / Серии: 1-20 из 20 [2017 военный история WEB-DL 720p] MVO [AlexFilm] bober100 Скачать
3 | 1
Зарубежные сериалы [ 44.61 GB ] Викинги / Vikings / Сезон: 5 / Серии: 1-20 из 20 [2017 военный история WEB-DL 1080p] MVO [AlexFilm] bober100 Скачать
1 | 0
Зарубежные сериалы [ 5.2 GB ] Викинги / Vikings / Сезон: 5 / Серии 1-10 из 20 [2017 Ирландия военный WEB-DLRip] MVO [Lostfilm] GEKADOL Скачать
4 | 5


Последний раз редактировалось: bober100 (2019-01-31 05:52), всего редактировалось 9 раз(а)


>> Регистрируемся здесь <<






Отзывы и комментарии о схеме читаем и пишем здесь: ---> Отзывы и комментарии о схеме

Новые благодарочки в телеграм довольных пользователей:
скриншот   скриншот   скриншот   скриншот   скриншот

29-11-2018 15:10 Викинги Скачать торрент  

запутался,это продолжение?pb.wtf
Kbober100 писал(а):

Да



01-12-2018 18:19 Викинги Скачать торрент  

да, продолжение сезона..... было показано всего 10 серий из 20... не прошло и года вторые десять выпустили...pb.wtf



31-01-2019 07:23 Викинги Скачать торрент  

Ура, ура pb.wtf



    Дорогой пользователь! Огромная просьба, поблагодарите релизера, оцените раздачу и оставьте свои комментарий, если Вы скачали Викинги через торрент бесплатно! Внесите свою лепту в развитие PiratBit!
    Комментировать посты могут только пользователи прошедшие не сложную регистрацию
    Показать сообщения:    

    Викинги через торрент
    Скачать бесплатно Викинги
    Викинги скачать торрент
    Викинги смотреть онлайн
    Cкачать фильм Викинги бесплатно
    Викинги скачать торрент в хорошем качестве
    Викинги смотреть онлайн бесплатно в хорошем качестве


    Вы не можете начинать темы
    Вы не можете отвечать на сообщения
    Вы не можете редактировать свои сообщения
    Вы не можете удалять свои сообщения
    Вы не можете голосовать в опросах
    Вы не можете прикреплять файлы к сообщениям
    Вы можете скачивать файлы