Anonymous, доброй ночи, присоединяйтесь к нам в Telegram!, здесь всегда актуальный адрес сайта, оперативная поддержка и многое другое!

>

5.6

iTunes

7.4

iTunes

7.9

MVO

1

7.7

1 сезон

6.8

iTunes

7.3

1 сезон

13

6.7

1 сезон

8.3

RePack

30

PREMIUM

pack

9.9

Лицензия

ВАЖНО

ИГРА 18+

pack

7.3

RePack

MK11

7.7

RePack

jed

7.8

RePack

fifa19

8.5

RePack

RDR2

RePack

NEED FOR SPEED™ PAYBACK

4 сезон

9 сезон

Бесстыжие 9 сезон

Все сериалы

все сериалы на PB.wtf

RePack

FAR CRY 5

Anonymous, доброй ночи, мы катастрофически не успеваем собрать деньги на оплату серверов, помогите нам пожалуйста 5,10,15р., для нас важна любая помощь . В качестве благодарности мы отключим Вам всю рекламу на сайте (укажите свой ник в строку Ваше имя)!

×
  
Magnet ссылка

Ольга / Сезоны: 1-3 / Серии: 1-56 из 56 (Алексей Нужный, Игорь Волошин) [2016-2018, комедия, WEB-DL 1080p] pb.wtf

Ольга через торрент pb.wtf

Размер: 43.64 GB | Добавлен: 2 года 10 мес. назад | Торрент скачан:211 раз
Смотреть онлайн Ольга | Скачать    Ребята, помогите собрать деньги на оплату серверов!!!

29-11-2018 17:48 Ольга Скачать торрент  

Ольга
Год выпуска: 2016-2018
Страна: Россия
Жанр: комедия
Продолжительность: ~ 00:26:00
Перевод: Не требуется
Субтитры: отсутствуют

Режиссер: Алексей Нужный, Игорь Волошин

rating

В ролях:

Яна Троянова (Ольга Терентьева), Василий Кортуков (Юрий Геннадьевич Терентьев, отец Ольги), Алина Алексеева (Лена, младшая сестра Ольги), Ксения Суркова (Аня, дочь Ольги), Сергей Романович (Андрей, парень Ани), Максим Костромыкин (Григорий Юсупов), Гоша Куценко (Володя), Фархад Гусейнов (водитель), Борис Дергачев, Александр Шам (Марат), Александр Никольский, Александр Силаев (Лютый)

Описание:

Главная героиня воспитывает двух детей от разных браков, заботится об отце-алкоголике и пытается наладить личную жизнь. Старшая дочь Анька учится в ПТУ, думает, что она единственный адекватный член семьи и в её жизни все будет по-другому, младший сын Тимофей, чей отец вернулся к первой семье в Азербайджан, считает, что он уже мужчина, хотя ему всего лишь 11 лет, отец Ольги, бывший футболист, крепко выпивает и постоянно врет, а сестра Ленка пытается жить за счет мужчин, в основном — женатых. Вечно спасая родственников от неприятностей, Ольга живет чужой жизнью и редко думает о себе — до тех пор, пока в нее не влюбляется молодой и положительный водитель газели «Ритуал» Гриша.

Качество: WEB-DL 1080p
Формат: MKV

Видео: MPEG-4 AVC, ~ 5000 Кбит/с, 1920x1080
Аудио: AC3, 2 ch, 192 Кбит/с
скриншот  скриншот  скриншот  скриншот  

Общее
Уникальный идентификатор : 227103619581052502749677017894178478877 (0xAADA90EEBF30C78EA62029F15A6B5B1D)
Полное имя : D:\Olga.All.Seasons.WEB-DL.1080p.ExKinoRay\Olga.s01.WEB-DL.1080p.ExKinoRay\Olga.s01.e01.WEB-DL.1080p.ExKinoRay.mkv
Формат : Matroska
Версия формата : Version 2
Размер файла : 801 Мбайт
Продолжительность : 21 м. 36 с.
Режим общего битрейта : Постоянный
Общий поток : 5184 Кбит/сек
Дата кодирования : UTC 2018-11-18 02:16:12
Программа кодирования : mkvmerge v5.8.0 ('No Sleep / Pillow') built on Sep 2 2012 15:37:04
Библиотека кодирования : libebml v1.2.3 + libmatroska v1.3.0

Видео
Идентификатор : 1
Формат : AVC
Формат/Информация : Advanced Video Codec
Профиль формата : Baseline@L4
Параметр CABAC формата : Нет
Параметр RefFrames формата : 4 кадра
Параметр GOP формата : M=1, N=50
Идентификатор кодека : V_MPEG4/ISO/AVC
Продолжительность : 21 м. 36 с.
Вид битрейта : Постоянный
Битрейт : 5000 Кбит/сек
Ширина : 1920 пикселей
Высота : 1080 пикселей
Соотношение сторон : 16:9
Режим частоты кадров : Постоянный
Частота кадров : 25,000 кадров/сек
Стандарт вещания : PAL
Цветовое пространство : YUV
Субдискретизация насыщенности : 4:2:0
Битовая глубина : 8 бит
Тип развёртки : Прогрессивная
Бит/(Пиксели*Кадры) : 0.096
Размер потока : 755 Мбайт (94%)
Язык : Russian
Default : Да
Forced : Нет
Цветовой диапазон : Limited
Основные цвета : BT.709
Характеристики трансфера : BT.709
Коэффициенты матрицы : BT.709

Аудио
Идентификатор : 2
Формат : AC-3
Формат/Информация : Audio Coding 3
Расширение режима : CM (complete main)
Параметр Endianness формата : Big
Идентификатор кодека : A_AC3
Продолжительность : 21 м. 36 с.
Вид битрейта : Постоянный
Битрейт : 192 Кбит/сек
Каналы : 2 канала
Расположение каналов : Front: L R
Частота : 48,0 КГц
Частота кадров : 31,250 кадров/сек (1536 spf)
Метод сжатия : С потерями
Размер потока : 29,7 Мбайт (4%)
Язык : Russian
Default : Да
Forced : Нет

pb.wtf



Скачать Ольга через торрент https://a.radikal.ru/a41/1811/01/c03b07ce2089.jpg Скачать, смотреть онлайн Ольга бесплантно в хорошем качестве Описание: Главная героиня воспитывает двух детей от разных браков, заботится об отце-алкоголике и пытается наладить личную жизнь. Старшая ... 10 10 6
Торрент: Зарегистрирован [2018-11-29 17:48] · скачан: 211 раз
Статус: √ проверено
Размер: 43.64 GB
Как cкачать? Как скачать Ольга через торрент | UTorrent

28-11-2019 20:33  

Отключить всю рекламу на сайте

    Дорогой пользователь! Огромная просьба, поблагодарите релизера, оцените раздачу и оставьте свои комментарий, если Вы скачали Ольга через торрент бесплатно!
    Комментировать посты могут только пользователи прошедшие не сложную регистрацию
    Показать сообщения:    

    Ольга через торрент
    Скачать бесплатно Ольга
    Ольга скачать торрент
    Ольга смотреть онлайн
    Cкачать фильм Ольга бесплатно
    Ольга скачать торрент в хорошем качестве
    Ольга смотреть онлайн бесплатно в хорошем качестве


    Вы не можете начинать темы
    Вы не можете отвечать на сообщения
    Вы не можете редактировать свои сообщения
    Вы не можете удалять свои сообщения
    Вы не можете голосовать в опросах
    Вы не можете прикреплять файлы к сообщениям
    Вы можете скачивать файлы