MEGA SALE -50% FORZA HORIZON 4 ULTIMATE+ВСЕ DLC+ОНЛАЙН всего за 599р. 299 руб. (супер цена). Внимание количество ограничено!!!

iTunes

1+1

iTunes

мы

iTunes

1

iTunes

Чернобыль

iTunes

Ральф против интернета

Лицензия

ПШазам

Лицензия

Игра престолов

Лицензия

30
pack

ВАЖНО

!!Акция!!

Alien_RageХит недели

RePack

Resident Evil 21

ИГРА 18+

pack

RePack

Metro:Exodus

!!Акция!!

Alien_Rage

RePack

fifa19

RePack

Assassins Creed: Odyssey

RePack

NEED FOR SPEED™ PAYBACK

3 сезон

9 сезон

Бесстыжие 9 сезон

Все сериалы

все сериалы на PB.wtf

RePack

FAR CRY 5
Ребята, катастрофически не хватает 7730р. для оплаты серверов за ИЮЛЬ (всвязи с блокировками трафик упал в 3 раза), 1-2р., выручайте.
  

Тайна Авроры Тигарден: Проблемный сверток / A Bundle of Trouble: An Aurora Teagarden Mystery (Кевин Фэйр) [2017, Драма, криминал, детектив, HDTVRip 720p] MVO ["Синема УС"] pb.wtf

Тайна Авроры Тигарден: Проблемный сверток через торрент pb.wtf

Размер: 2.87 GB | Добавлен: 8 мес. назад | Торрент скачан:13 раз
Скачать  

29-11-2018 18:02 Тайна Авроры Тигарден: Проблемный сверток Скачать торрент  

Тайна Авроры Тигарден: Проблемный сверток / A Bundle of Trouble: An Aurora Teagarden Mystery Год выпуска: 2017
Страна: США
Жанр: Драма, криминал, детектив
Продолжительность: 01:24:14
Перевод: Любительский (многоголосый) | "Синема УС"
Субтитры: отсутствуют

Режиссер: Кевин Фэйр

rating

В ролях:

Кендес Камерон Буре, Янник Биссон, Мэрилу Хеннер, Лекса Дойг, Питер Бенсон, Миранда Фригон, Эндрю Френсис, Брюс Доусон, Джессика Хифи, Кинэн Трэйси

Описание:

Аврора приглашает переночевать племянницу Мартина с ее новорожденным сыном, но племянница исчезает, ребенка спрятали в ванной, а Аврора находит незнакомца, который прячется в ее шкафу и $10,000 в сумке с подгузниками.

Качество: HDTVRip 720p
Формат: MKV

Видео: h.264, 4 489 Кбит/с, 1280x720
Аудио#1: Русский, (AC3, 2 ch, 384 Кбит/с)
скриншот  скриншот  скриншот  

Общее
Уникальный идентификатор : 221193579882593831942483466211778762779 (0xA668557A7BF10675A4278CC6E252181B)
Полное имя : D:\a.bundle.of.trouble.an.aurora.teagarden.mystery.2017.P.HDTV.72Op.mkv
Формат : Matroska
Версия формата : Version 2
Размер файла : 2,87 Гбайт
Продолжительность : 1 ч. 24 м.
Режим общего битрейта : Переменный
Общий поток : 4875 Кбит/сек
Дата кодирования : UTC 2018-11-29 13:00:42
Программа кодирования : mkvmerge v8.3.0 ('Over the Horizon') 64bit
Библиотека кодирования : libebml v1.3.1 + libmatroska v1.4.2

Видео
Идентификатор : 1
Формат : AVC
Формат/Информация : Advanced Video Codec
Профиль формата : High@L4.1
Параметр CABAC формата : Да
Параметр RefFrames формата : 4 кадра
Идентификатор кодека : V_MPEG4/ISO/AVC
Продолжительность : 1 ч. 24 м.
Вид битрейта : Переменный
Битрейт : 4489 Кбит/сек
Максимальный битрейт : 5000 Кбит/сек
Ширина : 1280 пикселей
Высота : 720 пикселей
Соотношение сторон : 16:9
Режим частоты кадров : Постоянный
Частота кадров : 23,976 (24000/1001) кадра/сек
Стандарт вещания : Component
Цветовое пространство : YUV
Субдискретизация насыщенности : 4:2:0
Битовая глубина : 8 бит
Тип развёртки : Прогрессивная
Бит/(Пиксели*Кадры) : 0.199
Размер потока : 2,59 Гбайт (90%)
Default : Да
Forced : Нет
Цветовой диапазон : Limited
Основные цвета : BT.709
Характеристики трансфера : BT.709
Коэффициенты матрицы : BT.709

Аудио
Идентификатор : 2
Формат : AC-3
Формат/Информация : Audio Coding 3
Расширение режима : CM (complete main)
Параметр Endianness формата : Big
Идентификатор кодека : A_AC3
Продолжительность : 1 ч. 24 м.
Вид битрейта : Постоянный
Битрейт : 384 Кбит/сек
Каналы : 2 канала
Расположение каналов : Front: L R
Частота : 48,0 КГц
Частота кадров : 31,250 кадров/сек (1536 spf)
Метод сжатия : С потерями
Размер потока : 231 Мбайт (8%)
Default : Да
Forced : Нет

pb.wtf



Скачать Тайна Авроры Тигарден: Проблемный сверток через торрент http://img10.lostpic.net/2018/11/29/cc68c3c8e12bd98acff18d577c080d6c.jpg Скачать фильм Тайна Авроры Тигарден: Проблемный сверток через торрент бесплантно в хорошем качестве Описание: Аврора приглашает переночевать племянницу Мартина с ее новорожденным сыном, но племянница исчезает, ребенка спрятали в ванной, а ... 10 10 2
Торрент: Зарегистрирован [2018-11-29 18:02] · скачан: 13 раз
Статус: T временная
Размер: 2.87 GB
Как cкачать? Как скачать Тайна Авроры Тигарден: Проблемный сверток через торрент | qTorrent

% Раздел Тема Автор DL S | L
T Фильмы (мультфильмы) cо спонсором показа (Новинки AVI/MKV) [ 1.37 GB ] Тайна Авроры Тигарден: Проблемный сверток / A Bundle of Trouble: An Aurora Teagarden Mystery [2017 HDTVRip] MVO ["Синема УС"] bober100 Скачать
1 | 0


>> Регистрируемся здесь <<






Отзывы и комментарии о схеме читаем и пишем здесь: ---> Отзывы и комментарии о схеме

Новые благодарочки в телеграм довольных пользователей:
скриншот   скриншот   скриншот   скриншот   скриншот
    Дорогой пользователь! Огромная просьба, поблагодарите релизера, оцените раздачу и оставьте свои комментарий, если Вы скачали Тайна Авроры Тигарден: Проблемный сверток через торрент бесплатно! Внесите свою лепту в развитие PiratBit!
    Комментировать посты могут только пользователи прошедшие не сложную регистрацию
    Показать сообщения:    

    Тайна Авроры Тигарден: Проблемный сверток через торрент
    Скачать бесплатно Тайна Авроры Тигарден: Проблемный сверток
    Тайна Авроры Тигарден: Проблемный сверток скачать торрент
    Тайна Авроры Тигарден: Проблемный сверток смотреть онлайн
    Cкачать фильм Тайна Авроры Тигарден: Проблемный сверток бесплатно
    Тайна Авроры Тигарден: Проблемный сверток скачать торрент в хорошем качестве
    Тайна Авроры Тигарден: Проблемный сверток смотреть онлайн бесплатно в хорошем качестве


    Вы не можете начинать темы
    Вы не можете отвечать на сообщения
    Вы не можете редактировать свои сообщения
    Вы не можете удалять свои сообщения
    Вы не можете голосовать в опросах
    Вы не можете прикреплять файлы к сообщениям
    Вы можете скачивать файлы