Ссылка на приватное зеркало всего за 1$. Внимание количество ограничено!!!

OK

1+1

iTunes

мы

OK

1

WEB-DLRip

Джокер

Пифагор

Ведьмак / The Witcher сериал

iTunes

ПШазам

ОК

Оно 2

iTunes

30
pack

Вам бонус

ВАЖНО

!!Акция!!

Alien_RageХит недели

RePack

Resident Evil 21

ИГРА 18+

pack

RePack

jed

RePack

fifa19

RePack

Assassins Creed: Odyssey

RePack

NEED FOR SPEED™ PAYBACK

4 сезон

9 сезон

Бесстыжие 9 сезон

Все сериалы

все сериалы на PB.wtf

RePack

FAR CRY 5
  

Рождественская надежда / Hope at Christmas (Роберт Тейт Миллер) [2018, Мелодрама, HDTVRip 720p] MVO ["Синема УС"] pb.wtf

Рождественская надежда через торрент pb.wtf

Размер: 2.93 GB | Добавлен: 1 год 1 мес. назад | Торрент скачан:15 раз
Скачать  

29-11-2018 18:15 Рождественская надежда Скачать торрент  

Рождественская надежда / Hope at ChristmasГод выпуска: 2018
Страна: США
Жанр: Мелодрама
Продолжительность: 01:26:27
Перевод: Любительский (многоголосый) | "Синема УС"
Субтитры: отсутствуют

Режиссер: Роберт Тейт Миллер

rating

В ролях:

Питер Грэхэм-Годрэу, Йен Хоуз, Скотти Томпсон, Нельсон Вонг

Описание:

Сидни Регсдейл недавно развелась и решила встретить Рождество вместе с дочерью в доме ее бабушки. Она проводит много времени в книжном магазине, где встречает учителя по имени Мак, который еще и подрабатывает местным Сантой. Он хочет воплотить рождественские желания своей новой знакомой. Сидни все сердцем привязывается к книжному магазину и к Маку, который заставил ее вновь открыться жизни и любви.

Качество: HDTVRip 720p
Формат: MKV

Видео: h.264,4 460 kb/s, 1280x720
Аудио#1: Русский, (AC3, 2 ch, 384 Кбит/с)
скриншот  скриншот  скриншот  

Общее
Уникальный идентификатор : 178709048310212520676668745450565326338 (0x86721C59F05A354A8E129F0C2F2AD602)
Полное имя : D:\Hope.at.Christmas.2018.P.HDTV.720p_KOSHARA.mkv
Формат : Matroska
Версия формата : Version 2
Размер файла : 2,93 Гбайт
Продолжительность : 1 ч. 26 м.
Режим общего битрейта : Переменный
Общий поток : 4846 Кбит/сек
Дата кодирования : UTC 2018-11-29 13:05:37
Программа кодирования : mkvmerge v8.3.0 ('Over the Horizon') 64bit
Библиотека кодирования : libebml v1.3.1 + libmatroska v1.4.2

Видео
Идентификатор : 1
Формат : AVC
Формат/Информация : Advanced Video Codec
Профиль формата : High@L4.1
Параметр CABAC формата : Да
Параметр RefFrames формата : 4 кадра
Идентификатор кодека : V_MPEG4/ISO/AVC
Продолжительность : 1 ч. 26 м.
Вид битрейта : Переменный
Битрейт : 4460 Кбит/сек
Максимальный битрейт : 5000 Кбит/сек
Ширина : 1280 пикселей
Высота : 720 пикселей
Соотношение сторон : 16:9
Режим частоты кадров : Постоянный
Частота кадров : 23,976 (24000/1001) кадра/сек
Стандарт вещания : Component
Цветовое пространство : YUV
Субдискретизация насыщенности : 4:2:0
Битовая глубина : 8 бит
Тип развёртки : Прогрессивная
Бит/(Пиксели*Кадры) : 0.198
Размер потока : 2,64 Гбайт (90%)
Default : Да
Forced : Нет
Цветовой диапазон : Limited
Основные цвета : BT.709
Характеристики трансфера : BT.709
Коэффициенты матрицы : BT.709

Аудио
Идентификатор : 2
Формат : AC-3
Формат/Информация : Audio Coding 3
Расширение режима : CM (complete main)
Параметр Endianness формата : Big
Идентификатор кодека : A_AC3
Продолжительность : 1 ч. 26 м.
Вид битрейта : Постоянный
Битрейт : 384 Кбит/сек
Каналы : 2 канала
Расположение каналов : Front: L R
Частота : 48,0 КГц
Частота кадров : 31,250 кадров/сек (1536 spf)
Метод сжатия : С потерями
Размер потока : 237 Мбайт (8%)
Default : Да
Forced : Нет

pb.wtf



Скачать Рождественская надежда через торрент http://img10.lostpic.net/2018/11/29/516ddbbd734262f87e42c1dfc58ad537.jpg Скачать фильм Рождественская надежда через торрент бесплантно в хорошем качестве Описание: Сидни Регсдейл недавно развелась и решила встретить Рождество вместе с дочерью в доме ее бабушки. Она проводит много времени в ... 10 10 2
Торрент: Зарегистрирован [2018-11-29 18:15] · скачан: 15 раз
Статус: T временная
Размер: 2.93 GB
Как cкачать? Как скачать Рождественская надежда через торрент | qTorrent

% Раздел Тема Автор DL S | L
T Фильмы (мультфильмы) cо спонсором показа (Новинки AVI/MKV) [ 1.37 GB ] Рождественская надежда / Hope at Christmas [2018 Мело HDTVRip] MVO ["Синема УС"] bober100 Скачать
1 | 0

28-11-2019 20:33  

Отключить всю рекламу на сайте

    Дорогой пользователь! Огромная просьба, поблагодарите релизера, оцените раздачу и оставьте свои комментарий, если Вы скачали Рождественская надежда через торрент бесплатно! Внесите свою лепту в развитие PiratBit!
    Комментировать посты могут только пользователи прошедшие не сложную регистрацию
    Показать сообщения:    

    Рождественская надежда через торрент
    Скачать бесплатно Рождественская надежда
    Рождественская надежда скачать торрент
    Рождественская надежда смотреть онлайн
    Cкачать фильм Рождественская надежда бесплатно
    Рождественская надежда скачать торрент в хорошем качестве
    Рождественская надежда смотреть онлайн бесплатно в хорошем качестве


    Вы не можете начинать темы
    Вы не можете отвечать на сообщения
    Вы не можете редактировать свои сообщения
    Вы не можете удалять свои сообщения
    Вы не можете голосовать в опросах
    Вы не можете прикреплять файлы к сообщениям
    Вы можете скачивать файлы