Marvel's Avengers Deluxe Edition (супер цена) 159р. Внимание количество ограничено!!!

2 сезон

iTunes

iTunes

1

iTunes

iTunes

iTunes

WEBRip

iTunes

30
pack

Новость дня

ВАЖНО

!!Акция!!

Alien_RageХит недели

RePack

Horizon Zero Dawn

ИГРА 18+

pack

RePack

jed

!!Акция!!

Alien_Rage

RePack

fifa19

RePack

Assassins Creed: Odyssey

RePack

NEED FOR SPEED™ PAYBACK

4 сезон

9 сезон

Бесстыжие 9 сезон

Все сериалы

все сериалы на PB.wtf

RePack

FAR CRY 5
  

Страшные истории пижамной вечеринки / Scary Story Slumber Party (Джон Джонсон, Джонатан Муди, Майк Уилсон) [2017, ужасы, триллер, WEB-DL 720p] MVO ["Синема УС"] pb.wtf

Страшные истории пижамной вечеринки через торрент pb.wtf

Размер: 2.9 GB | Добавлен: 1 год 9 мес. назад | Торрент скачан:24 раза
Скачать  

29-11-2018 18:41 Страшные истории пижамной вечеринки Скачать торрент  

Страшные истории пижамной вечеринки / Scary Story Slumber Party Год выпуска: 2017
Страна: США
Жанр: ужасы, триллер
Продолжительность: 01:19:32
Перевод: Любительский (многоголосый) | "Синема УС"
Субтитры: отсутствуют

Режиссер: Джон Джонсон, Джонатан Муди, Майк Уилсон

rating

В ролях:

Фарон Браун, Рассел А. Брайан, Такиа Коулман, Бриттани Колли, Генри Д'Алонзо, Лорен Доусон, Джессика Доул, Хезер Дорфф, Джей Гейтс, Джеки Холл

Описание:

Заскучав во время пижамной вечеринки и не зная как развлечься, три подруги решают пощекотать друг другу нервы и одна за другой начинают рассказывать страшные истории.

Качество: WEB-DL 720p
Формат: MKV

Видео: h.264, 4 819 kb/s, 1280x720
Аудио#1: Русский, (AC3, 2 ch, 384 Кбит/с)
скриншот  скриншот  скриншот  

Общее
Уникальный идентификатор : 235846619889978789369766596005389891086 (0xB16E6820F4A1BC488B58C6443FC3760E)
Полное имя : D:\Scary.Story.Slumber.Party.2017.P.WEB-DL.72Op_KOSHARA.mkv
Формат : Matroska
Версия формата : Version 2
Размер файла : 2,90 Гбайт
Продолжительность : 1 ч. 19 м.
Режим общего битрейта : Переменный
Общий поток : 5205 Кбит/сек
Дата кодирования : UTC 2018-11-29 04:01:21
Программа кодирования : mkvmerge v8.3.0 ('Over the Horizon') 64bit
Библиотека кодирования : libebml v1.3.1 + libmatroska v1.4.2

Видео
Идентификатор : 1
Формат : AVC
Формат/Информация : Advanced Video Codec
Профиль формата : High@L4.1
Параметр CABAC формата : Да
Параметр RefFrames формата : 4 кадра
Идентификатор кодека : V_MPEG4/ISO/AVC
Продолжительность : 1 ч. 19 м.
Вид битрейта : Переменный
Битрейт : 4819 Кбит/сек
Максимальный битрейт : 5500 Кбит/сек
Ширина : 1280 пикселей
Высота : 720 пикселей
Соотношение сторон : 16:9
Режим частоты кадров : Постоянный
Частота кадров : 23,976 (24000/1001) кадра/сек
Стандарт вещания : Component
Цветовое пространство : YUV
Субдискретизация насыщенности : 4:2:0
Битовая глубина : 8 бит
Тип развёртки : Прогрессивная
Бит/(Пиксели*Кадры) : 0.213
Размер потока : 2,62 Гбайт (91%)
Default : Да
Forced : Нет
Цветовой диапазон : Limited
Основные цвета : BT.709
Характеристики трансфера : BT.709
Коэффициенты матрицы : BT.709

Аудио
Идентификатор : 2
Формат : AC-3
Формат/Информация : Audio Coding 3
Расширение режима : CM (complete main)
Параметр Endianness формата : Big
Идентификатор кодека : A_AC3
Продолжительность : 1 ч. 19 м.
Вид битрейта : Постоянный
Битрейт : 384 Кбит/сек
Каналы : 2 канала
Расположение каналов : Front: L R
Частота : 48,0 КГц
Частота кадров : 31,250 кадров/сек (1536 spf)
Метод сжатия : С потерями
Размер потока : 219 Мбайт (7%)
Default : Да
Forced : Нет

pb.wtf



Скачать Страшные истории пижамной вечеринки через торрент http://img10.lostpic.net/2018/11/29/36c82517ea7c326b8c29c24bdc9eaff8.jpg Скачать фильм Страшные истории пижамной вечеринки через торрент бесплантно в хорошем качестве Описание: Заскучав во время пижамной вечеринки и не зная как развлечься, три подруги решают пощекотать друг другу нервы и одна за другой ... 10 10 3
Торрент: Зарегистрирован [2018-11-29 18:41] · скачан: 24 раз
Статус: T временная
Размер: 2.9 GB
Как cкачать? Как скачать Страшные истории пижамной вечеринки через торрент | qTorrent

% Раздел Тема Автор DL S | L
T Фильмы (мультфильмы) cо спонсором показа (Новинки AVI/MKV) [ 1.37 GB ] Страшные истории пижамной вечеринки / Scary Story Slumber Party [2017 WEB-DLRip] MVO ["Синема УС"] bober100 Скачать
1 | 0

28-11-2019 20:33  

Отключить всю рекламу на сайте

    Дорогой пользователь! Огромная просьба, поблагодарите релизера, оцените раздачу и оставьте свои комментарий, если Вы скачали Страшные истории пижамной вечеринки через торрент бесплатно! Внесите свою лепту в развитие PiratBit!
    Комментировать посты могут только пользователи прошедшие не сложную регистрацию
    Показать сообщения:    

    Страшные истории пижамной вечеринки через торрент
    Скачать бесплатно Страшные истории пижамной вечеринки
    Страшные истории пижамной вечеринки скачать торрент
    Страшные истории пижамной вечеринки смотреть онлайн
    Cкачать фильм Страшные истории пижамной вечеринки бесплатно
    Страшные истории пижамной вечеринки скачать торрент в хорошем качестве
    Страшные истории пижамной вечеринки смотреть онлайн бесплатно в хорошем качестве


    Вы не можете начинать темы
    Вы не можете отвечать на сообщения
    Вы не можете редактировать свои сообщения
    Вы не можете удалять свои сообщения
    Вы не можете голосовать в опросах
    Вы не можете прикреплять файлы к сообщениям
    Вы можете скачивать файлы