Доктор Стрэндж

Лицензия

Добыча

MVO

Дом дракона

1 сезон

Тор

Лицензия

Мэверик

Лицензия

Там, где раки поют

MVO

Властелин колец

1 сезон

Ultimate

pack

Рекомендуем

30

Repack

ВАЖНО

ВАЖНО

Ghostwire

RePack

jed

RePack

nioh2

RePack

RDR2

RePack

NEED FOR SPEED™ PAYBACK

RePack

скачать торрент

Кинопоиск HD

Острые козырьки 6 сезон

6 сезон

FAR CRY 6

RePack

скачать торрент

Лицензия

скачать торрент

MVO

1

1 сезон

скачать торрент

1 сезон

скачать торрент

Лицензия

  

Подбирая лица / Хромосомный обмен / Crossing Over (Марк Халдор) [2017, комедия, WEB-DL 720p] MVO ["Синема УС"]

Подбирая лица через торрент pb.wtf

Размер: 2.93 GB | Добавлен: 3 года 10 мес. назад | Торрент скачан:7 раз
Смотреть онлайн | Скачать   

29-11-2018 20:28 Подбирая лица Скачать торрент  

Подбирая лица / Хромосомный обмен / Crossing OverГод выпуска: 2017
Страна: Великобритания
Жанр: комедия
Продолжительность: 01:22:20
Перевод: Любительский (многоголосый) | "Синема УС"
Субтитры: отсутствуют

Режиссер: Марк Халдор

rating

В ролях:

Луиз Джеймисон, Джейк Френсис, Андрей Ленарт, Дж. Дэвид Хинц, Нита Мистри, Доминика Ван Сантен, Карен Сандовал Энглер, Мари Луиз Смит, Тугба Тирпан, Марк Халдор

Описание:

Агент Анджела, зашиваясь на работе, подбирает на скорую руку для кастинга в новый кассовый фильм 8 актёров, никогда не блиставших на экране. Близится переломный день в их карьере и большой куш для Анджелы. Справятся ли они со своей задачей и как поведут себя, пробуясь на нестандартные роли?

Качество: WEB-DL 720p
Формат: MKV

Видео: h.264,4 703 kb/s, 1280x720
Аудио#1: Русский, (AC3, 2 ch, 384 Кбит/с)
скриншот  скриншот  скриншот  

Общее
Уникальный идентификатор : 188443647320137469340335539763176990302 (0x8DC4ED23546E06209788B2211D1EE65E)
Полное имя : D:\Crossing.Over.2018.P.WEB-DL.72Op_KOSHARA.mkv
Формат : Matroska
Версия формата : Version 2
Размер файла : 2,93 Гбайт
Продолжительность : 1 ч. 22 м.
Режим общего битрейта : Переменный
Общий поток : 5089 Кбит/сек
Дата кодирования : UTC 2018-11-29 05:07:03
Программа кодирования : mkvmerge v8.3.0 ('Over the Horizon') 64bit
Библиотека кодирования : libebml v1.3.1 + libmatroska v1.4.2

Видео
Идентификатор : 1
Формат : AVC
Формат/Информация : Advanced Video Codec
Профиль формата : [email protected]
Параметр CABAC формата : Да
Параметр RefFrames формата : 4 кадра
Идентификатор кодека : V_MPEG4/ISO/AVC
Продолжительность : 1 ч. 22 м.
Вид битрейта : Переменный
Битрейт : 4704 Кбит/сек
Максимальный битрейт : 5500 Кбит/сек
Ширина : 1280 пикселей
Высота : 720 пикселей
Соотношение сторон : 16:9
Режим частоты кадров : Постоянный
Частота кадров : 23,976 (24000/1001) кадра/сек
Стандарт вещания : Component
Цветовое пространство : YUV
Субдискретизация насыщенности : 4:2:0
Битовая глубина : 8 бит
Тип развёртки : Прогрессивная
Бит/(Пиксели*Кадры) : 0.208
Размер потока : 2,65 Гбайт (90%)
Default : Да
Forced : Нет
Цветовой диапазон : Limited
Основные цвета : BT.709
Характеристики трансфера : BT.709
Коэффициенты матрицы : BT.709

Аудио
Идентификатор : 2
Формат : AC-3
Формат/Информация : Audio Coding 3
Расширение режима : CM (complete main)
Параметр Endianness формата : Big
Идентификатор кодека : A_AC3
Продолжительность : 1 ч. 22 м.
Вид битрейта : Постоянный
Битрейт : 384 Кбит/сек
Каналы : 2 канала
Расположение каналов : Front: L R
Частота : 48,0 КГц
Частота кадров : 31,250 кадров/сек (1536 spf)
Метод сжатия : С потерями
Размер потока : 226 Мбайт (8%)
Default : Да
Forced : Нет




Скачать Подбирая лица через торрент https://c.radikal.ru/c20/1811/e0/2f90e5091dbc.jpg Скачать, смотреть онлайн Подбирая лица бесплантно в хорошем качестве Описание: Агент Анджела, зашиваясь на работе, подбирает на скорую руку для кастинга в новый кассовый фильм 8 актёров, никогда не блиставших ... 10 10 2
Торрент: Зарегистрирован [2018-11-29 20:28] · скачан: 7 раз
Статус: T временная
Размер: 2.93 GB
Как cкачать? Как скачать Подбирая лица через торрент | UTorrent

% Раздел Тема Автор DL S | L
T Фильмы (мультфильмы) cо спонсором показа (Новинки AVI/MKV) [ 1.37 GB ] Подбирая лица / Хромосомный обмен / Crossing Over | MVO | DLRip bober100 Скачать
1 | 0

28-11-2019 20:33  


Отключить вcю реклaмy на сайте, в т.ч. и в плеере онлайн просмотра!

    Дорогой пользователь! Огромная просьба, поблагодарите релизера, оцените раздачу и оставьте свои комментарий, если Вы скачали Подбирая лица через торрент бесплатно!!
    Комментировать посты могут только пользователи прошедшие не сложную регистрацию
    Показать сообщения:    


    Подбирая лица через торрент
    Скачать бесплатно Подбирая лица
    Подбирая лица скачать торрент
    Подбирая лица смотреть онлайн
    Cкачать фильм Подбирая лица бесплатно
    Подбирая лица скачать торрент в хорошем качестве
    Подбирая лица смотреть онлайн бесплатно в хорошем качестве
    Вы не можете начинать темы
    Вы не можете отвечать на сообщения
    Вы не можете редактировать свои сообщения
    Вы не можете удалять свои сообщения
    Вы не можете голосовать в опросах
    Вы не можете прикреплять файлы к сообщениям
    Вы можете скачивать файлы