Ссылка на приватное зеркало всего за 1$. Внимание количество ограничено!!!

OK

1+1

iTunes

мы

OK

1

WEB-DLRip

Джокер

Пифагор

Ведьмак / The Witcher сериал

iTunes

ПШазам

ОК

Оно 2

iTunes

30
pack

Вам бонус

ВАЖНО

!!Акция!!

Alien_RageХит недели

RePack

Resident Evil 21

ИГРА 18+

pack

RePack

jed

RePack

fifa19

RePack

Assassins Creed: Odyssey

RePack

NEED FOR SPEED™ PAYBACK

4 сезон

9 сезон

Бесстыжие 9 сезон

Все сериалы

все сериалы на PB.wtf

RePack

FAR CRY 5
  

Рождественские украшения / A Christmas Arrangement (Джейк Хелгрен) [2018, Мелодрама, WEB-DL 720p] MVO ["Синема УС"] pb.wtf

Рождественские украшения через торрент pb.wtf

Размер: 3.45 GB | Добавлен: 1 год 1 мес. назад | Торрент скачан:9 раз
Скачать  

29-11-2018 20:56 Рождественские украшения Скачать торрент  

Рождественские украшения / A Christmas ArrangementГод выпуска: 2018
Страна: США
Жанр: Мелодрама
Продолжительность: 01:33:10
Перевод: Любительский (многоголосый) | "Синема УС"
Субтитры: отсутствуют

Режиссер: Джейк Хелгрен

rating

В ролях:

Никки Уилан, Майлз Фишер, Дафна Зунига, Джули МакНивен, Клэйтон Читти, Лесли Истербрук, Крейг Степ, Хлоя Катрин Ким, Отем Федеричи, Джон Д. Хикман

Описание:

Поппи Бенсон достается в наследство цветочный магазин на грани банкротства. Она решает принять участие в городском цветочном шоу в надежде на денежный приз. И неожиданно влюбляется в привлекательного флориста Гарретта Харли, котрый оказывается ее соперником.

Качество: WEB-DL 720p
Формат: MKV

Видео: h.264,4 920 kb/s, 1280x716
Аудио#1: Русский, (AC3, 2 ch, 384 Кбит/с)
скриншот  скриншот  скриншот  

Общее
Уникальный идентификатор : 186452886031273261580372603099586494378 (0x8C4585074A8C7943A1B5A31901BFFFAA)
Полное имя : D:\A.Christmas.Arrangement.2O18.P.WEB-DL.72Op_KOSHARA.mkv
Формат : Matroska
Версия формата : Version 2
Размер файла : 3,45 Гбайт
Продолжительность : 1 ч. 33 м.
Режим общего битрейта : Переменный
Общий поток : 5306 Кбит/сек
Дата кодирования : UTC 2018-11-29 05:05:27
Программа кодирования : mkvmerge v8.3.0 ('Over the Horizon') 64bit
Библиотека кодирования : libebml v1.3.1 + libmatroska v1.4.2

Видео
Идентификатор : 1
Формат : AVC
Формат/Информация : Advanced Video Codec
Профиль формата : High@L4.1
Параметр CABAC формата : Да
Параметр RefFrames формата : 4 кадра
Идентификатор кодека : V_MPEG4/ISO/AVC
Продолжительность : 1 ч. 33 м.
Вид битрейта : Переменный
Битрейт : 4920 Кбит/сек
Максимальный битрейт : 5500 Кбит/сек
Ширина : 1280 пикселей
Высота : 716 пикселей
Соотношение сторон : 16:9
Режим частоты кадров : Постоянный
Частота кадров : 23,976 (24000/1001) кадра/сек
Стандарт вещания : Component
Цветовое пространство : YUV
Субдискретизация насыщенности : 4:2:0
Битовая глубина : 8 бит
Тип развёртки : Прогрессивная
Бит/(Пиксели*Кадры) : 0.219
Размер потока : 3,13 Гбайт (91%)
Default : Да
Forced : Нет
Цветовой диапазон : Limited
Основные цвета : BT.709
Характеристики трансфера : BT.709
Коэффициенты матрицы : BT.709

Аудио
Идентификатор : 2
Формат : AC-3
Формат/Информация : Audio Coding 3
Расширение режима : CM (complete main)
Параметр Endianness формата : Big
Идентификатор кодека : A_AC3
Продолжительность : 1 ч. 33 м.
Вид битрейта : Постоянный
Битрейт : 384 Кбит/сек
Каналы : 2 канала
Расположение каналов : Front: L R
Частота : 48,0 КГц
Частота кадров : 31,250 кадров/сек (1536 spf)
Метод сжатия : С потерями
Размер потока : 256 Мбайт (7%)
Default : Да
Forced : Нет

pb.wtf



Скачать Рождественские украшения через торрент https://a.radikal.ru/a38/1811/fa/9ecf90e745bb.jpg Скачать фильм Рождественские украшения через торрент бесплантно в хорошем качестве Описание: Поппи Бенсон достается в наследство цветочный магазин на грани банкротства. Она решает принять участие в городском цветочном шоу ... 10 10 2
Торрент: Зарегистрирован [2018-11-29 20:56] · скачан: 9 раз
Статус: T временная
Размер: 3.45 GB
Как cкачать? Как скачать Рождественские украшения через торрент | qTorrent

% Раздел Тема Автор DL S | L
T Фильмы (мультфильмы) cо спонсором показа (Новинки AVI/MKV) [ 1.37 GB ] Рождественские украшения / A Christmas Arrangement [2018 Мело WEB-DLRip] MVO ["Синема УС"] bober100 Скачать
1 | 0

28-11-2019 20:33  

Отключить всю рекламу на сайте

    Дорогой пользователь! Огромная просьба, поблагодарите релизера, оцените раздачу и оставьте свои комментарий, если Вы скачали Рождественские украшения через торрент бесплатно! Внесите свою лепту в развитие PiratBit!
    Комментировать посты могут только пользователи прошедшие не сложную регистрацию
    Показать сообщения:    

    Рождественские украшения через торрент
    Скачать бесплатно Рождественские украшения
    Рождественские украшения скачать торрент
    Рождественские украшения смотреть онлайн
    Cкачать фильм Рождественские украшения бесплатно
    Рождественские украшения скачать торрент в хорошем качестве
    Рождественские украшения смотреть онлайн бесплатно в хорошем качестве


    Вы не можете начинать темы
    Вы не можете отвечать на сообщения
    Вы не можете редактировать свои сообщения
    Вы не можете удалять свои сообщения
    Вы не можете голосовать в опросах
    Вы не можете прикреплять файлы к сообщениям
    Вы можете скачивать файлы