Ссылка на приватное зеркало нашего сайта всего за 1$. Внимание количество ограничено!!!

2 сезон

iTunes

1 сезон

1

iTunes

iTunes

iTunes

1 сезон

RePack

30

ИГРА 18+

pack

ВАЖНО

!!Акция!!

Alien_RageХит недели

RePack

MK11
pack

Забери бонус

RePack

jed

!!Акция!!

Alien_Rage

RePack

fifa19

RePack

Assassins Creed: Odyssey

RePack

NEED FOR SPEED™ PAYBACK

4 сезон

9 сезон

Бесстыжие 9 сезон

Все сериалы

все сериалы на PB.wtf

RePack

FAR CRY 5
  

Кто ты? / Сезон: 1 / Серии: 1-16 из 16 (Анатолий Матешко) [2018, Детектив, DVB] pb.wtf

Кто ты? через торрент pb.wtf

Размер: 20.23 GB | Добавлен: 1 год 11 мес. назад | Торрент скачан:46 раз
Скачать  

30-11-2018 01:56 Кто ты? Скачать торрент  

Кто ты? Год выпуска: 2018
Страна: Россия, Украина
Жанр: Детектив
Продолжительность: ~ 00:45:00
Субтитры: Украинские

Режиссер: Анатолий Матешко



В ролях:

Екатерина Кузнецова, Антон Батырев, Ярослав Гуревич, Игорь Пазыч, Мирослав Павличенко, Анастасия Матешко, Олег Примогенов, Ренат Сеттаров

Описание:

История о психотерапевте Инге Штефан, перешедшей в криминальный профайлинг после странной гибели нескольких ее пациентов, а ранее – исчезновения жениха. Параллельно со своим расследованием Инга работает с убойным отделом Главка полиции. В ходе развития сюжета героиня узнает, что за ней много лет следит маньяк, виновный не только в смертях ее пациентов и жениха...

Качество: DVB
Формат: TS

Видео: MPEG-2, ~ 3680 Кбит/с, 720x576@1024х576, 25,000 кадр/с
Аудио: МР2, 2 ch, 192 Кбит/с
скриншот  скриншот  скриншот  скриншот  

Общее
Идентификатор : 1 (0x1)
Полное имя : E:\Кто ты.(2018).DVB.Files-x\01.Кто ты.(2018).DVB.by.Серый1779.Files-x.ts
Формат : MPEG-TS
Размер файла : 1,25 Гбайт
Продолжительность : 43 м. 50 с.
Режим общего битрейта : Переменный
Общий поток : 4076 Кбит/сек

Видео
Идентификатор : 2405 (0x965)
Идентификатор меню : 6610 (0x19D2)
Формат : MPEG Video
Версия формата : Version 2
Профиль формата : Main@Main
Настройки формата : CustomMatrix / BVOP
Параметр BVOP формата : Да
Параметр матрицы формата : Выборочная
Параметр GOP формата : Variable
Структура изображения : Frame
Идентификатор кодека : 2
Продолжительность : 43 м. 50 с.
Вид битрейта : Переменный
Битрейт : 3680 Кбит/сек
Максимальный битрейт : 15,0 Мбит/сек
Ширина : 704 пикселя
Высота : 576 пикселей
Соотношение сторон : 16:9
Частота кадров : 25,000 кадров/сек
Стандарт вещания : PAL
Цветовое пространство : YUV
Субдискретизация насыщенности : 4:2:0
Битовая глубина : 8 бит
Тип развёртки : Чересстрочная
Порядок развёртки : Верхнее поле первое
Метод сжатия : С потерями
Бит/(Пиксели*Кадры) : 0.363
Временной код первого кадра : 00:00:00:00
Оригинал временного кода : Group of pictures header
GOP, открыто/закрыто : Открыто
GOP, открыто/закрыто на первом кадре : Закрыто
Размер потока : 1,13 Гбайт (90%)

Аудио
Идентификатор : 2406 (0x966)
Идентификатор меню : 6610 (0x19D2)
Формат : MPEG Audio
Версия формата : Version 1
Профиль формата : Layer 2
Идентификатор кодека : 3
Продолжительность : 43 м. 50 с.
Вид битрейта : Постоянный
Битрейт : 192 Кбит/сек
Каналы : 1 канал
Частота : 48,0 КГц
Частота кадров : 41,667 кадра/сек (1152 SPF)
Метод сжатия : С потерями
Задержка видео : 19 мс.
Размер потока : 60,2 Мбайт (5%)
Язык : Ukrainian
pb.wtf



Скачать Кто ты? через торрент http://i107.fastpic.ru/big/2018/1120/38/0518f4f41b98a1db8a7090814ac72138.jpg Скачать фильм Кто ты? через торрент бесплантно в хорошем качестве Описание: История о психотерапевте Инге Штефан, перешедшей в криминальный профайлинг после странной гибели нескольких ее пациентов, а ранее ... 10 10 5
Info! Серебряная раздача, засчитывается только 50% скачанного.
Торрент: Зарегистрирован [2018-11-30 01:56] · скачан: 46 раз
Статус: √ проверено
Размер: 20.23 GB
Как cкачать? Как скачать Кто ты? через торрент | qTorrent

28-11-2019 20:33  

Отключить всю рекламу на сайте

    Дорогой пользователь! Огромная просьба, поблагодарите релизера, оцените раздачу и оставьте свои комментарий, если Вы скачали Кто ты? через торрент бесплатно! Внесите свою лепту в развитие PiratBit!
    Комментировать посты могут только пользователи прошедшие не сложную регистрацию
    Показать сообщения:    

    Кто ты? через торрент
    Скачать бесплатно Кто ты?
    Кто ты? скачать торрент
    Кто ты? смотреть онлайн
    Cкачать фильм Кто ты? бесплатно
    Кто ты? скачать торрент в хорошем качестве
    Кто ты? смотреть онлайн бесплатно в хорошем качестве


    Вы не можете начинать темы
    Вы не можете отвечать на сообщения
    Вы не можете редактировать свои сообщения
    Вы не можете удалять свои сообщения
    Вы не можете голосовать в опросах
    Вы не можете прикреплять файлы к сообщениям
    Вы можете скачивать файлы