Ссылка на приватное зеркало нашего сайта всего за 1$. Внимание количество ограничено!!!

2 сезон

iTunes

1 сезон

1

2 сезон

2 сезон

iTunes

1 сезон

RePack

30

Новинка

ВАЖНО

ИГРА 18+

pack

RePack

MK11
pack

Забери бонус

RePack

jed

!!Акция!!

Alien_Rage

RePack

fifa19

RePack

Assassins Creed: Odyssey

RePack

NEED FOR SPEED™ PAYBACK

4 сезон

9 сезон

Бесстыжие 9 сезон

Все сериалы

все сериалы на PB.wtf

RePack

FAR CRY 5
  

Кровавый урожай / Blood Harvest (Билл Ребане) [1987, Ужасы, BD Remux 1080р] AVO [М.Иванов] pb.wtf

Кровавый урожай через торрент pb.wtf

Размер: 22.53 GB | Добавлен: 1 год 11 мес. назад | Торрент скачан:0 раз
Скачать  

30-11-2018 02:11 Кровавый урожай Скачать торрент  

Кровавый урожай / Blood Harvest Год выпуска: 1987
Страна: США
Жанр: Ужасы
Продолжительность: 01:27:56
Перевод: Авторский (одноголосый) | Михаил Иванов
Субтитры: английские

Режиссер: Билл Ребане

rating

В ролях:

Тайни Тим, Итония Салчек, Дин Уэст, Лори Миннетти, Питер Краузе, Фрэнк Бенсон, Альберт Джаггард, Уильям Декстер, Арлин Декстер, Дженетт Белант и др.

Описание:

Джилл Робинсон после долгого отсутствия возвращается в родной городок, который встречает её крайне негостеприимно. А всё из-за того, что её отец-банкир за долги отобрал у многих фермеров участки земли. Единственным, кто искренне рад видеть Джилл, становится местный дурачок Мерво, обожающий бродить по окрестностям в клоунском костюме. Вскоре его одержимость новой подругой начинает переходить все границы.

Качество: BD Remux 1080р
Формат: MKV

Видео: MPEG-4 AVC Video / 34911 kbps / 1080p / 23.976 fps / 16:9 / High Profile 4.1
Аудио#1: Russian / AC-3 / 2.0 / 48 kHz / 192 kbps / 16-bit / Михаил Иванов
Аудио#2: English / DTS-HD Master Audio / 1.0 / 96 kHz / 1574 kbps / 24-bit (DTS Core: 1.0 / 48 kHz / 768 kbps / 24-bit)
скриншот  скриншот  скриншот  скриншот  

скриншот  скриншот  скриншот  скриншот  

General
Unique ID : 296986641339311354390928730709783451773 (0xDF6D8BEB9B8DE5C34E6130DBDB3B987D)
Complete name : Blood.Harvest.1987.Vinegar.Syndrome.BDRemux.1080p.mkv
Format : Matroska
Format version : Version 4 / Version 2
File size : 22.5 GiB
Duration : 1 h 27 min
Overall bit rate mode : Variable
Overall bit rate : 36.7 Mb/s
Encoded date : UTC 2018-10-23 18:36:47
Writing application : mkvmerge v28.0.0 ('Voice In My Head') 32-bit
Writing library : libebml v1.3.6 + libmatroska v1.4.9

Video
ID : 1
Format : AVC
Format/Info : Advanced Video Codec
Format profile : High@L4.1
Format settings, CABAC : Yes
Format settings, RefFrames : 3 frames
Codec ID : V_MPEG4/ISO/AVC
Duration : 1 h 27 min
Bit rate mode : Variable
Bit rate : 35.0 Mb/s
Maximum bit rate : 40.0 Mb/s
Width : 1 920 pixels
Height : 1 080 pixels
Display aspect ratio : 16:9
Frame rate mode : Constant
Frame rate : 23.976 (24000/1001) FPS
Standard : NTSC
Color space : YUV
Chroma subsampling : 4:2:0
Bit depth : 8 bits
Scan type : Progressive
Bits/(Pixel*Frame) : 0.704
Stream size : 21.4 GiB (95%)
Writing library : x264pro - Adobe CS Exporter Plug-in
Encoding settings : cabac=1 / ref=4 / deblock=1:-1:-1 / analyse=0x3:0x133 / me=umh / subme=10 / psy=1 / psy_rd=1.00:0.15 / mixed_ref=1 / me_range=24 / chroma_me=1 / trellis=2 / 8x8dct=1 / cqm=0 / deadzone=21,11 / fast_pskip=1 / chroma_qp_offset=-3 / threads=12 / lookahead_threads=2 / sliced_threads=0 / slices=4 / nr=0 / decimate=1 / interlaced=0 / bluray_compat=1 / constrained_intra=0 / bframes=3 / b_pyramid=1 / b_adapt=2 / b_bias=0 / direct=3 / weightb=1 / open_gop=0 / weightp=1 / keyint=24 / keyint_min=1 / scenecut=40 / intra_refresh=0 / rc_lookahead=24 / rc=2pass / mbtree=1 / bitrate=35000 / ratetol=1.0 / qcomp=0.60 / qpmin=0 / qpmax=69 / qpstep=4 / cplxblur=20.0 / qblur=0.5 / vbv_maxrate=40000 / vbv_bufsize=30000 / nal_hrd=vbr / ip_ratio=1.40 / aq=1:1.00
Default : Yes
Forced : No
Color range : Limited
Color primaries : BT.709
Transfer characteristics : BT.709
Matrix coefficients : BT.709

Audio #1
ID : 2
Format : AC-3
Format/Info : Audio Coding 3
Format settings, Endianness : Big
Codec ID : A_AC3
Duration : 1 h 27 min
Bit rate mode : Constant
Bit rate : 192 kb/s
Channel(s) : 2 channels
Channel positions : Front: L R
Sampling rate : 48.0 kHz
Frame rate : 31.250 FPS (1536 SPF)
Bit depth : 16 bits
Compression mode : Lossy
Stream size : 121 MiB (1%)
Title : Михаил Иванов
Language : Russian
Service kind : Complete Main
Default : Yes
Forced : No

Audio #2
ID : 3
Format : DTS
Format/Info : Digital Theater Systems
Format profile : MA / Core
Mode : 16
Format settings, Endianness : Big
Codec ID : A_DTS
Duration : 1 h 27 min
Bit rate mode : Variable / Constant
Bit rate : 1 575 kb/s / 768 kb/s
Channel(s) : 1 channel
Channel positions : Front: C
Sampling rate : 96.0 kHz / 48.0 kHz
Frame rate : 93.750 FPS (512 SPF)
Bit depth : 24 bits
Compression mode : Lossless / Lossy
Stream size : 990 MiB (4%)
Language : English
Default : No
Forced : No

Text
ID : 4
Format : UTF-8
Codec ID : S_TEXT/UTF8
Codec ID/Info : UTF-8 Plain Text
Duration : 1 h 27 min
Bit rate : 44 b/s
Count of elements : 1086
Stream size : 28.7 KiB (0%)
Title : SDH
Language : English
Default : No
Forced : No

Menu
00:00:00.000 : :Chapter 01
00:19:20.159 : :Chapter 02
00:38:28.306 : :Chapter 03
00:58:25.502 : :Chapter 04
01:17:25.140 : :Chapter 05
01:27:56.104 : :Chapter 06

pb.wtf



Скачать Кровавый урожай через торрент http://img10.lostpic.net/2018/11/30/697c098bb92858b6bf4e03aa55e6fc20.jpg Скачать фильм Кровавый урожай через торрент бесплантно в хорошем качестве Описание: Джилл Робинсон после долгого отсутствия возвращается в родной городок, который встречает её крайне негостеприимно. А всё из-за ... 10 10 2
Info! Серебряная раздача, засчитывается только 50% скачанного.
Торрент: Зарегистрирован [2018-11-30 02:11] · скачан: 0 раз
Статус: √ проверено
Размер: 22.53 GB
Как cкачать? Как скачать Кровавый урожай через торрент | qTorrent

28-11-2019 20:33  

Отключить всю рекламу на сайте

25-12-2018 09:10 Кровавый урожай Скачать торрент  

Застыло на 98,8%, дораздайте, плиииз!pb.wtf



    Дорогой пользователь! Огромная просьба, поблагодарите релизера, оцените раздачу и оставьте свои комментарий, если Вы скачали Кровавый урожай через торрент бесплатно! Внесите свою лепту в развитие PiratBit!
    Комментировать посты могут только пользователи прошедшие не сложную регистрацию
    Показать сообщения:    

    Кровавый урожай через торрент
    Скачать бесплатно Кровавый урожай
    Кровавый урожай скачать торрент
    Кровавый урожай смотреть онлайн
    Cкачать фильм Кровавый урожай бесплатно
    Кровавый урожай скачать торрент в хорошем качестве
    Кровавый урожай смотреть онлайн бесплатно в хорошем качестве


    Вы не можете начинать темы
    Вы не можете отвечать на сообщения
    Вы не можете редактировать свои сообщения
    Вы не можете удалять свои сообщения
    Вы не можете голосовать в опросах
    Вы не можете прикреплять файлы к сообщениям
    Вы можете скачивать файлы