новый адрес пиратбит piratbit
Мега распродажа FORZA HORIZON 4 ULTIMATE+ВСЕ DLC+ОНЛАЙН всего за 499р. 349 руб. (супер цена). Внимание количество ограничено!!!

iTunes

1+1

iTunes

мы

iTunes

1

iTunes

Чернобыль

iTunes

Ральф против интернета

Лицензия

ПШазам

Лицензия

Игра престолов

Лицензия

30
pack

ВАЖНО

!!Акция!!

Alien_RageХит недели

RePack

Resident Evil 21

ИГРА 18+

pack

RePack

Metro:Exodus

!!Акция!!

Alien_Rage

RePack

fifa19

RePack

Assassins Creed: Odyssey

RePack

NEED FOR SPEED™ PAYBACK

3 сезон

9 сезон

Бесстыжие 9 сезон

Все сериалы

все сериалы на PB.wtf

RePack

FAR CRY 5
Ребята, катастрофически не хватает 1900р. для оплаты серверов за Октябрь (всвязи с блокировками трафик упал в 3 раза), 1-2р., выручайте.
  

Мальчики из Бразилии / The Boys from Brazil (Франклин Дж. Шаффнер) [1978, триллер, драма, BDRip 1080p by msltel] MVO, 2 x AVO pb.wtf

Мальчики из Бразилии через торрент pb.wtf

Размер: 14.24 GB | Добавлен: 11 мес. назад | Торрент скачан:11 раз
Скачать  

30-11-2018 07:00 Мальчики из Бразилии Скачать торрент  

Название: Мальчики из Бразилии
Оригинальное название: The Boys from Brazil
Год выпуска: 1978
Страна: Великобритания, США
Жанр: триллер, драма
Продолжительность: 02:04:58
Перевод: профессиональный многоголосый, авторский

Режиссер: Франклин Дж. Шаффнер
В ролях: Грегори Пек, Лоуренс Оливье, Джеймс Мэйсон, Лилли Палмер, Ута Хаген, Стив Гуттенберг, Денхолм Эллиотт, Розмари Харрис, Джон Денер, Джон Рубинстайн, Энн Мира, Джереми Блэк, Бруно Ганц, Уолтер Готелл, Дэвид Херст, Вольфган Прейсс, Майкл Гоф, Иоахим Ханзен, Скай Дюмонт, Карл Дюринг, Линда Хейден, Ричард Марнер

О фильме: В джунглях Южной Америки нацистский преступник врач Йозеф Менгеле собирается создать при помощи клонирования целую армию. А клонировать он собирается не кого-нибудь, а самого Гитлера. Но для начала ему необходимо убить некоего Эзра Либермана, который известен как охотник за военными преступниками... Экранизация одноимённого романа Айры Левина (1976).



Качество: BDRip 1080p
Формат: MKV
Видео: MPEG-4 AVC, 15.1 Mбит/с, 1920х1080, 24.000 кадр/с
Аудио 1: русский, AC3, 192 kbps, 2 ch, 48 kHz [закадровый многоголосый, К5]
Аудио 2: русский, AC3, 192 kbps, 2 ch, 48 kHz [авторский, Андрей Гаврилов]
Аудио 3: русский, AC3, 192 kbps, 2 ch, 48 kHz [авторский, Алексей Михалёв]
Аудио 4: английский, AC3, 640 kbps, 2 ch, 48 kHz [оригинал]
Субтитры: английские
Главы/чаптеры
Общее
Уникальный идентификатор : 236105067894381278897476359349018956468 (0xB1A02E9962047E8E8E854F2EABDA12B4)
Полное имя : D:\Video\Мальчики из Бразилии.1978.BDRip 1080p by msltel.mkv
Формат : Matroska
Версия формата : Version 4
Размер файла : 14,2 Гбайт
Продолжительность : 2 ч. 4 м.
Общий поток : 16,3 Мбит/сек
Название фильма : Rip by msltel
Дата кодирования : UTC 2018-11-29 20:52:53
Программа кодирования : mkvmerge v8.2.0 ('World of Adventure') 64bit
Библиотека кодирования : libebml v1.3.1 + libmatroska v1.4.2

Видео
Идентификатор : 1
Формат : AVC
Формат/Информация : Advanced Video Codec
Профиль формата : High@L4.1
Настройки формата : CABAC / 4 Ref Frames
Параметр CABAC формата : Да
Параметр RefFrames формата : 4 кадра
Идентификатор кодека : V_MPEG4/ISO/AVC
Продолжительность : 2 ч. 4 м.
Битрейт : 15,1 Мбит/сек
Ширина : 1920 пикселей
Высота : 1080 пикселей
Соотношение сторон : 16:9
Режим частоты кадров : Постоянный
Частота кадров : 24,000 кадра/сек
Цветовое пространство : YUV
Субдискретизация насыщенности : 4:2:0
Битовая глубина : 8 бит
Тип развёртки : Прогрессивная
Бит/(Пиксели*Кадры) : 0.303
Размер потока : 13,2 Гбайт (93%)
Библиотека кодирования : x264 core 155 r2901 7d0ff22
Настройки программы : cabac=1 / ref=4 / deblock=1:-3:-2 / analyse=0x3:0x113 / me=umh / subme=11 / psy=1 / psy_rd=1.00:0.15 / mixed_ref=1 / me_range=32 / chroma_me=1 / trellis=2 / 8x8dct=1 / cqm=0 / deadzone=21,11 / fast_pskip=0 / chroma_qp_offset=-3 / threads=6 / lookahead_threads=1 / sliced_threads=0 / nr=0 / decimate=1 / interlaced=0 / bluray_compat=0 / constrained_intra=0 / bframes=9 / b_pyramid=2 / b_adapt=2 / b_bias=0 / direct=1 / weightb=1 / open_gop=0 / weightp=2 / keyint=230 / keyint_min=23 / scenecut=40 / intra_refresh=0 / rc_lookahead=40 / rc=crf / mbtree=1 / crf=18.6 / qcomp=0.60 / qpmin=0 / qpmax=69 / qpstep=4 / vbv_maxrate=62500 / vbv_bufsize=78125 / crf_max=0.0 / nal_hrd=none / filler=0 / ip_ratio=1.40 / aq=1:1.00
Язык : English
Default : Да
Forced : Нет

Аудио #1
Идентификатор : 2
Формат : AC-3
Формат/Информация : Audio Coding 3
Коммерческое название : Dolby Digital
Идентификатор кодека : A_AC3
Продолжительность : 2 ч. 4 м.
Вид битрейта : Постоянный
Битрейт : 192 Кбит/сек
Каналы : 2 канала
Channel layout : L R
Частота : 48,0 КГц
Частота кадров : 31,250 кадров/сек (1536 SPF)
Битовая глубина : 16 бит
Метод сжатия : С потерями
Размер потока : 172 Мбайт (1%)
Заголовок : MVO R5
Язык : Russian
ServiceKind/String : Complete Main
Default : Да
Forced : Нет

Аудио #2
Идентификатор : 3
Формат : AC-3
Формат/Информация : Audio Coding 3
Коммерческое название : Dolby Digital
Идентификатор кодека : A_AC3
Продолжительность : 2 ч. 4 м.
Вид битрейта : Постоянный
Битрейт : 192 Кбит/сек
Каналы : 2 канала
Channel layout : L R
Частота : 48,0 КГц
Частота кадров : 31,250 кадров/сек (1536 SPF)
Битовая глубина : 16 бит
Метод сжатия : С потерями
Размер потока : 172 Мбайт (1%)
Заголовок : Андрей Гаврилов
Язык : Russian
ServiceKind/String : Complete Main
Default : Нет
Forced : Нет

Аудио #3
Идентификатор : 4
Формат : AC-3
Формат/Информация : Audio Coding 3
Коммерческое название : Dolby Digital
Идентификатор кодека : A_AC3
Продолжительность : 2 ч. 4 м.
Вид битрейта : Постоянный
Битрейт : 192 Кбит/сек
Каналы : 2 канала
Channel layout : L R
Частота : 48,0 КГц
Частота кадров : 31,250 кадров/сек (1536 SPF)
Битовая глубина : 16 бит
Метод сжатия : С потерями
Размер потока : 172 Мбайт (1%)
Заголовок : Алексей Михалёв
Язык : Russian
ServiceKind/String : Complete Main
Default : Нет
Forced : Нет

Аудио #4
Идентификатор : 5
Формат : AC-3
Формат/Информация : Audio Coding 3
Коммерческое название : Dolby Digital
Идентификатор кодека : A_AC3
Продолжительность : 2 ч. 4 м.
Вид битрейта : Постоянный
Битрейт : 640 Кбит/сек
Каналы : 2 канала
Channel layout : L R
Частота : 48,0 КГц
Частота кадров : 31,250 кадров/сек (1536 SPF)
Битовая глубина : 16 бит
Метод сжатия : С потерями
Размер потока : 572 Мбайт (4%)
Заголовок : original
Язык : English
ServiceKind/String : Complete Main
Default : Нет
Forced : Нет

Текст
Идентификатор : 6
Формат : UTF-8
Идентификатор кодека : S_TEXT/UTF8
Идентификатор кодека/Информация : UTF-8 Plain Text
Продолжительность : 1 ч. 59 м.
Битрейт : 49 бит/сек
ElementCount : 1232
Размер потока : 43,6 Кбайт (0%)
Заголовок : английские
Язык : English
Default : Нет
Forced : Нет

Меню
00:00:00.000 : en:Opening Credits
00:06:45.167 : en:The Nazi Hunters
00:13:21.250 : en:The Mysterious Project
00:27:55.250 : en:Kohler's Evidence
00:35:26.625 : en:A Special Place
00:44:58.208 : en:Lieberman Investigates
00:54:58.917 : en:A Bunch of Fanatics
01:01:28.500 : en:Cloning
01:14:31.000 : en:Mengele's Rage
01:24:05.208 : en:A World of Mozart & Picasso
01:33:39.458 : en:Destroying the Shrine
01:42:35.083 : en:Final Confrontation
01:49:59.833 : en:Born of the Noblest Blood
01:58:06.542 : en:94 Young Hitler's
02:02:29.125 : en:End Credits
pb.wtf



Скачать Мальчики из Бразилии через торрент https://d.radikal.ru/d00/1811/90/2be9ffe9b3c8.jpg Скачать фильм Мальчики из Бразилии через торрент бесплантно в хорошем качестве О фильме: В джунглях Южной Америки нацистский преступник врач Йозеф Менгеле собирается создать при помощи клонирования целую армию. А ... 5 10 1
Торрент: Зарегистрирован [2018-11-30 07:00] · скачан: 11 раз
Статус: √ проверено
Размер: 14.24 GB
Как cкачать? Как скачать Мальчики из Бразилии через торрент | qTorrent

% Раздел Тема Автор DL S | L
Фильмы [HD 720p, 1080p] (Хороший звук DUB, MVO) [ 5.84 GB ] Мальчики из Бразилии / The Boys from Brazil [1978 BDRip 720p by msltel] MVO 2 x AVO msltel Скачать
1 | 0


>> Регистрируемся здесь <<






Отзывы и комментарии о схеме читаем и пишем здесь: ---> Отзывы и комментарии о схеме

Новые благодарочки в телеграм довольных пользователей:
скриншот   скриншот   скриншот   скриншот   скриншот
    Дорогой пользователь! Огромная просьба, поблагодарите релизера, оцените раздачу и оставьте свои комментарий, если Вы скачали Мальчики из Бразилии через торрент бесплатно! Внесите свою лепту в развитие PiratBit!
    Комментировать посты могут только пользователи прошедшие не сложную регистрацию
    Показать сообщения:    

    Мальчики из Бразилии через торрент
    Скачать бесплатно Мальчики из Бразилии
    Мальчики из Бразилии скачать торрент
    Мальчики из Бразилии смотреть онлайн
    Cкачать фильм Мальчики из Бразилии бесплатно
    Мальчики из Бразилии скачать торрент в хорошем качестве
    Мальчики из Бразилии смотреть онлайн бесплатно в хорошем качестве


    Вы не можете начинать темы
    Вы не можете отвечать на сообщения
    Вы не можете редактировать свои сообщения
    Вы не можете удалять свои сообщения
    Вы не можете голосовать в опросах
    Вы не можете прикреплять файлы к сообщениям
    Вы можете скачивать файлы