Достать ножи: Стеклянная луковица

MVO

Добыча

Дубляж

Уэнсдэй

1 сезон

Тор

Дубляж

13 клиническая

1 сезон

Жестокая ночь

MVO

Одни из нас

1 сезон

Deluxe

pack

Рекомендуем

30

Пиратка

ВАЖНО

ВАЖНО

Ghostwire

Пиратка

jed

RePack

nioh2

RePack

RDR2

RePack

NEED FOR SPEED™ PAYBACK

RePack

скачать торрент

Кинопоиск HD

Острые козырьки 6 сезон

6 сезон

FAR CRY 6

RePack

скачать торрент

Лицензия

скачать торрент

MVO

1

1 сезон

скачать торрент

1 сезон

скачать торрент

Лицензия

  

Мотылек / Papillon (Михаэль Ноер) [2017 г., Триллер, Драма, Криминал, Детектив, BDRip 1080p, HEVC (10bit), Дубляж (iTunes)]

Мотылек через торрент pb.wtf

Размер: 4.73 GB | Добавлен: 4 года 1 мес. назад | Торрент скачан:718 раз
Смотреть онлайн | Скачать | Поддержите нас   

30-11-2018 07:51 Мотылек Скачать торрент  

Мотылек / Papillon
Год выпуска: 2017
Страна: Чехия, Испания, США
Жанр: Триллер, Драма, Криминал, Детектив
Продолжительность: 02:13:14
Перевод: Дубляж (iTunes)
Субтитры: Английские

Режиссер: Михаэль Ноер

rating

В ролях: Чарли Ханнэм, Рами Малек, Роланд Мюллер, Йоэль Басман, Йорик ван Вагенинген, Майкл Сока

Описание: Взломщик сейфов по прозвищу Мотылёк получает пожизненный срок и отправляется на каторгу за убийство, которого он не совершал. Когда вокруг враги, а надежда угасает с каждым днём заключения, лишь сила духа может помочь Мотыльку обрести свободу.
Доп. информация: -
H.265/HEVC (High Efficiency Video Coding) - это новый стандарт кодирования видео.
- Стандарт H.265/HEVC является логическим продолжением стандарта
H.264/AVC (Advanced Video Coding), и характеризуется более эффективными
алгоритмами сжатия, а также поддержкой высокого разрешения вплоть до 8K UHD
(8192x4320). Первая версия стандарта H.265 была опубликована в начале 2013 года.
- Рипы в фомате HEVC поддерживается не всеми аппаратными проигрывателями.
- Для корректного воспроизведения может потребоваться обновление ПО.
- Владельцам несовместимого железа просьба не беспокоить,
есть альтернативные релизы.
Качество: BDRip 1080p
Формат: MKV
Видео кодек: H.265
Аудио кодек: AC3
Видео: 1920x804, ~4250 Kbps
Аудио#1: AC3, 6 ch, 384 Kbps - Дублированный
Аудио#2: AC3, 6 ch, 448 Kbps - Английский
Релиз от: RG

Общее
Уникальный идентификатор : 249546972152549204874592598926229347652 (0xBBBCFFA58F0AFD8CC15265AF54159D44)
Полное имя : F:\РАЗДАЧИ\Мотылек. 2017. 1080p. HEVC. 10bit..mkv
Формат : Matroska
Версия формата : Version 4 / Version 2
Размер файла : 4,73 Гбайт
Продолжительность : 2 ч. 13 м.
Общий поток : 5083 Кбит/сек
Дата кодирования : UTC 2018-11-28 05:21:23
Программа кодирования : mkvmerge v28.2.0 ('The Awakening') 64-bit
Библиотека кодирования : libebml v1.3.6 + libmatroska v1.4.9
Обложка : Yes
Attachments : cover1.jpg

Видео
Идентификатор : 1
Формат : HEVC
Формат/Информация : High Efficiency Video Coding
Профиль формата : Main [email protected]@Main
Идентификатор кодека : V_MPEGH/ISO/HEVC
Продолжительность : 2 ч. 13 м.
Битрейт : 4250 Кбит/сек
Ширина : 1920 пикселей
Высота : 804 пикселя
Соотношение сторон : 2,40:1
Режим частоты кадров : Постоянный
Частота кадров : 23,976 (24000/1001) кадра/сек
Цветовое пространство : YUV
Субдискретизация насыщенности : 4:2:0
Битовая глубина : 10 бит
Бит/(Пиксели*Кадры) : 0.115
Размер потока : 3,96 Гбайт (84%)
Библиотека кодирования : x265 2.9+1-169e76b6bbcc:[Windows][GCC 8.2.0][64 bit] 10bit
Настройки программы : cpuid=1111039 / frame-threads=3 / numa-pools=8 / wpp / no-pmode / no-pme / no-psnr / no-ssim / log-level=2 / input-csp=1 / input-res=1920x804 / interlace=0 / total-frames=191681 / level-idc=0 / high-tier=1 / uhd-bd=0 / ref=4 / no-allow-non-conformance / no-repeat-headers / annexb / no-aud / no-hrd / info / hash=0 / no-temporal-layers / open-gop / min-keyint=23 / keyint=250 / gop-lookahead=0 / bframes=8 / b-adapt=2 / b-pyramid / bframe-bias=0 / rc-lookahead=25 / lookahead-slices=4 / scenecut=40 / radl=0 / no-intra-refresh / ctu=64 / min-cu-size=8 / rect / no-amp / max-tu-size=32 / tu-inter-depth=1 / tu-intra-depth=1 / limit-tu=0 / rdoq-level=2 / dynamic-rd=0.00 / no-ssim-rd / signhide / no-tskip / nr-intra=0 / nr-inter=0 / no-constrained-intra / strong-intra-smoothing / max-merge=3 / limit-refs=3 / limit-modes / me=3 / subme=3 / merange=57 / temporal-mvp / weightp / no-weightb / no-analyze-src-pics / deblock=0:0 / sao / no-sao-non-deblock / rd=4 / no-early-skip / rskip / no-fast-intra / no-tskip-fast / no-cu-lossless / no-b-intra / no-splitrd-skip / rdpenalty=0 / psy-rd=2.00 / psy-rdoq=1.00 / no-rd-refine / no-lossless / cbqpoffs=0 / crqpoffs=0 / rc=abr / bitrate=4250 / qcomp=0.60 / qpstep=4 / stats-write=0 / stats-read=2 / cplxblur=20.0 / qblur=0.5 / ipratio=1.40 / pbratio=1.30 / aq-mode=3 / aq-strength=1.00 / cutree / zone-count=0 / no-strict-cbr / qg-size=32 / no-rc-grain / qpmax=69 / qpmin=0 / no-const-vbv / sar=0 / overscan=0 / videoformat=5 / range=0 / colorprim=2 / transfer=2 / colormatrix=2 / chromaloc=0 / display-window=0 / max-cll=0,0 / min-luma=0 / max-luma=1023 / log2-max-poc-lsb=8 / vui-timing-info / vui-hrd-info / slices=1 / no-opt-qp-pps / no-opt-ref-list-length-pps / multi-pass-opt-rps / scenecut-bias=0.05 / no-opt-cu-delta-qp / aq-motion / no-hdr / no-hdr-opt / no-dhdr10-opt / no-idr-recovery-sei / analysis-reuse-level=5 / scale-factor=0 / refine-intra=0 / refine-inter=0 / refine-mv=0 / no-limit-sao / ctu-info=0 / no-lowpass-dct / refine-mv-type=0 / copy-pic=1 / max-ausize-factor=1.0 / no-dynamic-refine / no-single-sei
Default : Да
Forced : Нет

Аудио #1
Идентификатор : 2
Формат : AC-3
Формат/Информация : Audio Coding 3
Идентификатор кодека : A_AC3
Продолжительность : 2 ч. 12 м.
Вид битрейта : Постоянный
Битрейт : 384 Кбит/сек
Каналы : 6 каналов
Расположение каналов : Front: L C R, Side: L R, LFE
Частота : 48,0 КГц
Частота кадров : 31,250 кадров/сек (1536 SPF)
Битовая глубина : 16 бит
Метод сжатия : С потерями
Размер потока : 365 Мбайт (8%)
Язык : Russian
ServiceKind/String : Complete Main
Default : Да
Forced : Нет

Аудио #2
Идентификатор : 3
Формат : AC-3
Формат/Информация : Audio Coding 3
Идентификатор кодека : A_AC3
Продолжительность : 2 ч. 13 м.
Вид битрейта : Постоянный
Битрейт : 448 Кбит/сек
Каналы : 6 каналов
Расположение каналов : Front: L C R, Side: L R, LFE
Частота : 48,0 КГц
Частота кадров : 31,250 кадров/сек (1536 SPF)
Битовая глубина : 16 бит
Метод сжатия : С потерями
Размер потока : 427 Мбайт (9%)
Язык : English
ServiceKind/String : Complete Main
Default : Нет
Forced : Нет

Текст
Идентификатор : 4
Формат : UTF-8
Идентификатор кодека : S_TEXT/UTF8
Идентификатор кодека/Информация : UTF-8 Plain Text
Продолжительность : 2 ч. 1 м.
Битрейт : 28 бит/сек
ElementCount : 974
Размер потока : 25,6 Кбайт (0%)
Язык : English
Default : Нет
Forced : Нет

Меню
00:00:00.000 : en:Chapter 01
00:08:16.621 : en:Chapter 02
00:16:47.589 : en:Chapter 03
00:21:25.909 : en:Chapter 04
00:26:31.965 : en:Chapter 05
00:30:39.796 : en:Chapter 06
00:34:10.798 : en:Chapter 07
00:44:51.146 : en:Chapter 08
00:52:54.588 : en:Chapter 09
00:59:03.665 : en:Chapter 10
01:04:12.890 : en:Chapter 11
01:12:18.334 : en:Chapter 12
01:20:35.372 : en:Chapter 13
01:24:08.418 : en:Chapter 14
01:35:19.547 : en:Chapter 15
01:40:53.047 : en:Chapter 16
01:47:10.882 : en:Chapter 17
01:57:03.016 : en:Chapter 18
02:02:58.913 : en:Chapter 19
02:05:57.550 : en:Chapter 20




Скачать Мотылек через торрент https://b.radikal.ru/b20/1811/d0/e49b7ef94db1.jpg Скачать, смотреть онлайн Мотылек бесплантно в хорошем качестве Описание: Взломщик сейфов по прозвищу Мотылёк получает пожизненный срок и отправляется на каторгу за убийство, которого он не совершал. ... 8.9 10 9
Info! Золотая раздача, скачанное не засчитывается.
Торрент: Зарегистрирован [2018-11-30 07:51] · скачан: 718 раз
Статус: √ проверено
Размер: 4.73 GB
Как cкачать? Как скачать Мотылек через торрент | UTorrent

% Раздел Тема Автор DL S | L
Фильмы (HD 720p, 1080p) (48-60 fps) [ 26.89 GB ] Мотылек / Papillon | iTunes | 1080p, 60fps sheker187 Скачать
1 | 0
Фильмы (Blu-ray, BD-Remux, HDDVD) [ 36.96 GB ] Мотылек / Papillon | Лицензия | BD Remux 1080p bober100 Скачать
1 | 0
Фильмы [HD 720p, 1080p] (Хороший звук DUB, MVO) [ 10 GB ] Мотылек / Papillon | Лицензия | 720p bober100 Скачать
1 | 0
Фильмы [HD 720p, 1080p] (Хороший звук DUB, MVO) [ 14.96 GB ] Мотылек / Papillon | Лицензия | 1080p bober100 Скачать
2 | 0
Фильмы 2017 [DVDrip, WEB-DLRip, HDrip] (DUB, MVO) [ 1.46 GB ] Мотылек / Papillon | Лицензия | BDRip Twi7ter Скачать
2 | 0
Фильмы 2017 [DVDrip, WEB-DLRip, HDrip] (DUB, MVO) [ 2.18 GB ] Мотылек / Papillon | Лицензия | BDRip Twi7ter Скачать
1 | 0
Видео для КПК и Смартфонов [ 506 MB ] Мотылек / Papillon | iTunes | HDRip, КПК sergey82 Скачать
1 | 0

28-11-2019 20:33  


Отключить вcю реклaмy на сайте, в т.ч. и в плеере онлайн просмотра!

16-12-2018 18:38 Мотылек Скачать торрент  

Это второй фильм, а есть первая экранизация - "Мотылёк" 1973г. Оба фильма очень впечатляют, старый наверно посильнее.



    Дорогой пользователь! Огромная просьба, поблагодарите релизера, оцените раздачу и оставьте свои комментарий, если Вы скачали Мотылек через торрент бесплатно!!
    Комментировать посты могут только пользователи прошедшие не сложную регистрацию
    Показать сообщения:    


    Мотылек через торрент
    Скачать бесплатно Мотылек
    Мотылек скачать торрент
    Мотылек смотреть онлайн
    Cкачать фильм Мотылек бесплатно
    Мотылек скачать торрент в хорошем качестве
    Мотылек смотреть онлайн бесплатно в хорошем качестве
    Вы не можете начинать темы
    Вы не можете отвечать на сообщения
    Вы не можете редактировать свои сообщения
    Вы не можете удалять свои сообщения
    Вы не можете голосовать в опросах
    Вы не можете прикреплять файлы к сообщениям
    Вы можете скачивать файлы
    Мотылек / Papillon [2017 г., Триллер, Драма, Криминал, Детектив, BDRip 1080p, HEVC , Дубляж ] смотреть онлайн, скачать торрент picoco.icu