Ссылка на приватное зеркало нашего сайта всего за 1$. Внимание количество ограничено!!!

2 сезон

iTunes

1 сезон

1

2 сезон

2 сезон

iTunes

1 сезон

RePack

30

Новинка

ВАЖНО

ИГРА 18+

pack

RePack

MK11
pack

Забери бонус

RePack

jed

!!Акция!!

Alien_Rage

RePack

fifa19

RePack

Assassins Creed: Odyssey

RePack

NEED FOR SPEED™ PAYBACK

4 сезон

9 сезон

Бесстыжие 9 сезон

Все сериалы

все сериалы на PB.wtf

RePack

FAR CRY 5
  

Как женить холостяка / Destination Wedding (Виктор Левин) [2018, драма, мелодрама, комедия, BD Remux 1080p] DUB [iTunes] pb.wtf

Как женить холостяка через торрент pb.wtf

Размер: 14.73 GB | Добавлен: 2 года назад | Торрент скачан:93 раза
Скачать  

30-11-2018 10:00 Как женить холостяка Скачать торрент  

Как женить холостяка / Destination Wedding
Год выпуска: 2018
Страна: США
Жанр: драма, мелодрама, комедия
Продолжительность: 01:26:31
Перевод: Дублированный | iTunes
Субтитры: Английские

Режиссер: Виктор Левин

rating

В ролях:

Киану Ривз, Вайнона Райдер, Грег Люси, Тед Дюбо, Д. Рош Райт, Курт Дюбо, Донна Линн Джонс, Джеймс Галлардо, Скотт Эндрюс

Описание:

Закоренелый холостяк Фрэнк и коварная соблазнительница Линдси приглашены на одну свадьбу. Странным образом они везде оказываются вместе: в самолете, такси, в соседних номерах и за столом. Похоже, кто-то придумал хитроумный план поймать их в любовные сети и наконец женить холостяка.

Качество: BD Remux 1080p
Формат: MKV

Видео: MPEG-4 AVC, 1980x1080, 22 Mbit/s, 24 fps
Аудио#1: 48 kHz, AC3, 5.1, 384 Kbps | iTunes | RUS |
Аудио#2: 48 kHz, DTS-HD MA, 5.1, 1991 Kbps | Оригинал | ENG |
скриншот  скриншот  скриншот  скриншот  скриншот  

General
Unique ID : 278239124607950413140130514920184977561 (0xD152E7FB4C4E9E735123728320539899)
Complete name : D:Video111Destination.Wedding.2018.BDREMUX.1080p.selezen.mkv
Format : Matroska
Format version : Version 4
File size : 14.7 GiB
Duration : 1 h 26 min
Overall bit rate mode : Variable
Overall bit rate : 24.4 Mb/s
Movie name : Destination Wedding 2018 from селезень
Encoded date : UTC 2018-11-30 09:32:46
Writing application : mkvmerge v28.2.0 ('The Awakening') 64-bit
Writing library : libebml v1.3.6 + libmatroska v1.4.9

Video
ID : 1
Format : AVC
Format/Info : Advanced Video Codec
Format profile : High@L4.1
Format settings : CABAC / 4 Ref Frames
Format settings, CABAC : Yes
Format settings, ReFrames : 4 frames
Codec ID : V_MPEG4/ISO/AVC
Duration : 1 h 26 min
Bit rate mode : Variable
Bit rate : 22.0 Mb/s
Maximum bit rate : 35.0 Mb/s
Width : 1 920 pixels
Height : 1 080 pixels
Display aspect ratio : 16:9
Frame rate mode : Constant
Frame rate : 24.000 FPS
Standard : NTSC
Color space : YUV
Chroma subsampling : 4:2:0
Bit depth : 8 bits
Scan type : Progressive
Bits/(Pixel*Frame) : 0.442
Stream size : 13.3 GiB (90%)
Language : English
Default : Yes
Forced : No
Color range : Limited
Color primaries : BT.709
Transfer characteristics : BT.709
Matrix coefficients : BT.709

Audio #1
ID : 2
Format : AC-3
Format/Info : Audio Coding 3
Commercial name : Dolby Digital
Codec ID : A_AC3
Duration : 1 h 26 min
Bit rate mode : Constant
Bit rate : 384 kb/s
Channel(s) : 6 channels
Channel layout : L R C LFE Ls Rs
Sampling rate : 48.0 kHz
Frame rate : 31.250 FPS (1536 SPF)
Bit depth : 16 bits
Compression mode : Lossy
Stream size : 238 MiB (2%)
Title : iTunes
Language : Russian
Service kind : Complete Main
Default : Yes
Forced : Yes

Audio #2
ID : 3
Format : DTS XLL
Format/Info : Digital Theater Systems
Commercial name : DTS-HD Master Audio
Codec ID : A_DTS
Duration : 1 h 26 min
Bit rate mode : Variable
Bit rate : 1 991 kb/s
Channel(s) : 6 channels
Channel layout : C L R Ls Rs LFE
Sampling rate : 48.0 kHz
Frame rate : 93.750 FPS (512 SPF)
Bit depth : 16 bits
Compression mode : Lossless
Stream size : 1.20 GiB (8%)
Title : Original
Language : English
Default : No
Forced : No

Text
ID : 4
Format : UTF-8
Codec ID : S_TEXT/UTF8
Codec ID/Info : UTF-8 Plain Text
Duration : 1 h 20 min
Bit rate : 124 b/s
Count of elements : 1520
Stream size : 73.7 KiB (0%)
Title : SDH Colored
Language : English
Default : No
Forced : No

Menu
00:00:00.000 : en:Chapter 1
00:08:57.792 : en:Chapter 2
00:14:35.042 : en:Chapter 3
00:22:16.542 : en:Chapter 4
00:28:27.667 : en:Chapter 5
00:36:07.708 : en:Chapter 6
00:41:29.167 : en:Chapter 7
00:49:59.583 : en:Chapter 8
00:58:12.250 : en:Chapter 9
01:06:43.417 : en:Chapter 10
01:15:41.250 : en:Chapter 11
01:21:28.708 : en:Chapter 12

pb.wtf



Скачать Как женить холостяка через торрент http://img10.lostpic.net/2018/11/30/fa96dbe1ba2006235fdc0a879b8621fb.jpg Скачать фильм Как женить холостяка через торрент бесплантно в хорошем качестве Описание: Закоренелый холостяк Фрэнк и коварная соблазнительница Линдси приглашены на одну свадьбу. Странным образом они везде оказываются ... 10 10 3
Торрент: Зарегистрирован [2018-11-30 10:00] · скачан: 93 раз
Статус: √ проверено
Размер: 14.73 GB
Как cкачать? Как скачать Как женить холостяка через торрент | qTorrent

% Раздел Тема Автор DL S | L
Фильмы 2018 [DVDrip, WEB-DLRip, HDrip] (DUB, MVO) [ 1.42 GB ] Как женить холостяка / Destination Wedding [2018 BDRip] - Twi7ter Скачать
2 | 0
Видео для КПК и Смартфонов [ 328 MB ] Как женить холостяка / Destination Wedding [2018 HDRip КПК] sergey82 Скачать
1 | 0
Фильмы 2018 [DVDrip, WEB-DLRip, HDrip] (DUB, MVO) [ 746 MB ] Как женить холостяка / Destination Wedding [2018 BDRip] bober100 Скачать
1 | 0
Фильмы [HD 720p, 1080p] (Хороший звук DUB, MVO) [ 3.05 GB ] Как женить холостяка / Destination Wedding [2018 BDRip 720p] bober100 Скачать
1 | 0
Фильмы [HD 720p, 1080p] (Хороший звук DUB, MVO) [ 7.47 GB ] Как женить холостяка / Destination Wedding [2018 BDRip 1080p] bober100 Скачать
1 | 0
Фильмы 2018 [DVDrip, WEB-DLRip, HDrip] (DUB, MVO) [ 1.69 GB ] Как женить холостяка / Destination Wedding [2018 BDRip-AVC] bober100 Скачать
10 | 0
Фильмы 2018 [DVDrip, WEB-DLRip, HDrip] (DUB, MVO) [ 1.43 GB ] Как женить холостяка / Destination Wedding [2018 BDRip] bober100 Скачать
1 | 0

28-11-2019 20:33  

Отключить всю рекламу на сайте

    Дорогой пользователь! Огромная просьба, поблагодарите релизера, оцените раздачу и оставьте свои комментарий, если Вы скачали Как женить холостяка через торрент бесплатно! Внесите свою лепту в развитие PiratBit!
    Комментировать посты могут только пользователи прошедшие не сложную регистрацию
    Показать сообщения:    

    Как женить холостяка через торрент
    Скачать бесплатно Как женить холостяка
    Как женить холостяка скачать торрент
    Как женить холостяка смотреть онлайн
    Cкачать фильм Как женить холостяка бесплатно
    Как женить холостяка скачать торрент в хорошем качестве
    Как женить холостяка смотреть онлайн бесплатно в хорошем качестве


    Вы не можете начинать темы
    Вы не можете отвечать на сообщения
    Вы не можете редактировать свои сообщения
    Вы не можете удалять свои сообщения
    Вы не можете голосовать в опросах
    Вы не можете прикреплять файлы к сообщениям
    Вы можете скачивать файлы