Ссылка на приватное зеркало всего за 1$. Внимание количество ограничено!!!

OK

1+1

iTunes

мы

OK

1

WEB-DLRip

Джокер

Пифагор

Ведьмак / The Witcher сериал

Лицензия

ПШазам

ОК

Оно 2

iTunes

30
pack

Вам бонус

ВАЖНО

!!Акция!!

Alien_RageХит недели

RePack

Resident Evil 21

ИГРА 18+

pack

RePack

jed

RePack

fifa19

RePack

Assassins Creed: Odyssey

RePack

NEED FOR SPEED™ PAYBACK

4 сезон

9 сезон

Бесстыжие 9 сезон

Все сериалы

все сериалы на PB.wtf

RePack

FAR CRY 5
  

Сиротка / Orphan Horse (Шон МакНамара) [2018, драма, BDRip 720p] MVO ["Синема УС"] pb.wtf

Сиротка через торрент pb.wtf

Размер: 5.39 GB | Добавлен: 1 год 1 мес. назад | Торрент скачан:19 раз
Скачать  

30-11-2018 11:28 Сиротка Скачать торрент  

Сиротка / Orphan HorseГод выпуска: 2018
Страна: США
Жанр: драма
Продолжительность: 01:44:15
Перевод: Любительский (многоголосый) | "Синема УС"
Субтитры: отсутствуют

Режиссер: Шон МакНамара

rating

В ролях:

Джон Войт, Алекса Нисенсон, Вэйл Блум, Ева ЛаРю Каллахан, Филип Бойд, Скотт Саммитт, Изабелла Блейк Томас, Даллас Эдвардс, Изабель Янг, Фил Расселл

Описание:

Сбежав от нерадивых опекунов, маленькая девочка прячется в сарае у пожилого конюха. В отличие от него, ребёнок быстро находит язык с непослушной кобылкой. Оказывается, у них есть много общего...

Качество: BDRip 720p
Формат: MKV

Видео: h.264, 6 957 kb/s, 1280x720
Аудио#1: Русский (AC3, 2 ch, 448 Кбит/с)
скриншот  скриншот  скриншот  

Общее
Уникальный идентификатор : 219366788756814572215052341220965417629 (0xA50881B8DDB4808C9C6B8A8B3B3D029D)
Полное имя : D:\Orphan.Horse.2O18.P.BDRip.72Op_KOSHARA.mkv
Формат : Matroska
Версия формата : Version 2
Размер файла : 5,39 Гбайт
Продолжительность : 1 ч. 44 м.
Режим общего битрейта : Переменный
Общий поток : 7407 Кбит/сек
Дата кодирования : UTC 2018-11-28 15:26:08
Программа кодирования : mkvmerge v8.3.0 ('Over the Horizon') 64bit
Библиотека кодирования : libebml v1.3.1 + libmatroska v1.4.2

Видео
Идентификатор : 1
Формат : AVC
Формат/Информация : Advanced Video Codec
Профиль формата : High@L4.1
Параметр CABAC формата : Да
Параметр RefFrames формата : 4 кадра
Идентификатор кодека : V_MPEG4/ISO/AVC
Продолжительность : 1 ч. 44 м.
Вид битрейта : Переменный
Битрейт : 6957 Кбит/сек
Максимальный битрейт : 7500 Кбит/сек
Ширина : 1280 пикселей
Высота : 720 пикселей
Соотношение сторон : 16:9
Режим частоты кадров : Постоянный
Частота кадров : 23,976 (24000/1001) кадра/сек
Стандарт вещания : Component
Цветовое пространство : YUV
Субдискретизация насыщенности : 4:2:0
Битовая глубина : 8 бит
Тип развёртки : Прогрессивная
Бит/(Пиксели*Кадры) : 0.308
Размер потока : 4,96 Гбайт (92%)
Default : Да
Forced : Нет
Цветовой диапазон : Limited
Основные цвета : BT.709
Характеристики трансфера : BT.709
Коэффициенты матрицы : BT.709

Аудио
Идентификатор : 2
Формат : AC-3
Формат/Информация : Audio Coding 3
Расширение режима : CM (complete main)
Параметр Endianness формата : Big
Идентификатор кодека : A_AC3
Продолжительность : 1 ч. 44 м.
Вид битрейта : Постоянный
Битрейт : 448 Кбит/сек
Каналы : 2 канала
Расположение каналов : Front: L R
Частота : 48,0 КГц
Частота кадров : 31,250 кадров/сек (1536 spf)
Метод сжатия : С потерями
Размер потока : 334 Мбайт (6%)
Default : Да
Forced : Нет

pb.wtf



Скачать Сиротка через торрент http://img10.lostpic.net/2018/11/30/4bcee9362c7dd216f8aabae846d9a14b.jpg Скачать фильм Сиротка через торрент бесплантно в хорошем качестве Описание: Сбежав от нерадивых опекунов, маленькая девочка прячется в сарае у пожилого конюха. В отличие от него, ребёнок быстро находит ... 10 10 2
Торрент: Зарегистрирован [2018-11-30 11:28] · скачан: 19 раз
Статус: # сомнительно
Размер: 5.39 GB
Как cкачать? Как скачать Сиротка через торрент | qTorrent

% Раздел Тема Автор DL S | L
T Фильмы (мультфильмы) cо спонсором показа (Новинки AVI/MKV) [ 1.37 GB ] Сиротка / Orphan Horse [2018 HDRip] MVO ["Синема УС"] bober100 Скачать
1 | 0

28-11-2019 20:33  

Отключить всю рекламу на сайте

    Дорогой пользователь! Огромная просьба, поблагодарите релизера, оцените раздачу и оставьте свои комментарий, если Вы скачали Сиротка через торрент бесплатно! Внесите свою лепту в развитие PiratBit!
    Комментировать посты могут только пользователи прошедшие не сложную регистрацию
    Показать сообщения:    

    Сиротка через торрент
    Скачать бесплатно Сиротка
    Сиротка скачать торрент
    Сиротка смотреть онлайн
    Cкачать фильм Сиротка бесплатно
    Сиротка скачать торрент в хорошем качестве
    Сиротка смотреть онлайн бесплатно в хорошем качестве


    Вы не можете начинать темы
    Вы не можете отвечать на сообщения
    Вы не можете редактировать свои сообщения
    Вы не можете удалять свои сообщения
    Вы не можете голосовать в опросах
    Вы не можете прикреплять файлы к сообщениям
    Вы можете скачивать файлы