новый адрес
Ссылка на приватное зеркало всего за 1$. Внимание количество ограничено!!!

iTunes

1+1

iTunes

мы

WEB-DL

1

iTunes

Чернобыль

iTunes

Ральф против интернета

Лицензия

ПШазам

Лицензия

Оно 2

Лицензия

30
pack

Вам бонус

ВАЖНО

!!Акция!!

Alien_RageХит недели

RePack

Resident Evil 21

ИГРА 18+

pack

RePack

jed

!!Акция!!

Alien_Rage

RePack

fifa19

RePack

Assassins Creed: Odyssey

RePack

NEED FOR SPEED™ PAYBACK

3 сезон

9 сезон

Бесстыжие 9 сезон

Все сериалы

все сериалы на PB.wtf

RePack

FAR CRY 5
Ребята, катастрофически не хватает 1900р. для оплаты серверов за Октябрь (всвязи с блокировками трафик упал в 3 раза), 1-2р., выручайте.
  

Как женить холостяка / Destination Wedding (Виктор Левин) [2018, драма, мелодрама, комедия, BDRip-AVC] DUB [iTunes] pb.wtf

Как женить холостяка через торрент pb.wtf

Раздают: 1 [ 0 KB/s ]
Размер: 1.69 GB | Добавлен: 1 год назад | Торрент скачан:211 раз
Скачать  

30-11-2018 13:32 Как женить холостяка Скачать торрент  

Как женить холостяка / Destination Wedding
Год выпуска: 2018
Страна: США
Жанр: драма, мелодрама, комедия
Продолжительность: 01:26:31
Перевод: Дублированный | iTunes
Субтитры: Английские (полные, SDH)

Режиссер: Виктор Левин

rating

В ролях:

Киану Ривз, Вайнона Райдер, Грег Люси, Тед Дюбо, Д. Рош Райт, Курт Дюбо, Донна Линн Джонс, Джеймс Галлардо, Скотт Эндрюс

Описание:

Закоренелый холостяк Фрэнк и коварная соблазнительница Линдси приглашены на одну свадьбу. Странным образом они везде оказываются вместе: в самолете, такси, в соседних номерах и за столом. Похоже, кто-то придумал хитроумный план поймать их в любовные сети и наконец женить холостяка.

Качество: BDRip-AVC
Формат: MKV

Видео: 1024x428 (2.40:1), 24,000 fps, x264 ~1 963 kbps avg, 0.187 bit/pixel
Аудио#1: 48 kHz, AC3 Dolby Digital Plus, 3/2 (L,C,R,l,r) + LFE ch, ~384.00 kbps avg | RUS (iTunes)
Аудио#2: 48 kHz, AC3 Dolby Digital Plus, 3/2 (L,C,R,l,r) + LFE ch, ~448.00 kbps avg | ENG
скриншот  скриншот  скриншот  скриншот  скриншот  

Общее
Уникальный идентификатор : 296022199481151856128085842300796270126 (0xDEB3CD43F8B1BE566E97E19FDDA9F62E)
Полное имя : F:\OlLanDGroup\Destination.Wedding.2018.BDRip(AVC).OlLanDGroup.mkv
Формат : Matroska
Версия формата : Version 4 / Version 2
Размер файла : 1,69 Гбайт
Продолжительность : 1 ч. 26 м.
Общий поток : 2794 Кбит/сек
Название фильма : Destination.Wedding.2018 #TorpedoUK#
Дата кодирования : UTC 2018-11-30 13:07:32
Программа кодирования : mkvmerge v25.0.0 ('Prog Noir') 64-bit
Библиотека кодирования : libebml v1.3.6 + libmatroska v1.4.9

Видео
Идентификатор : 1
Формат : AVC
Формат/Информация : Advanced Video Codec
Профиль формата : High@L4.1
Параметр CABAC формата : Да
Параметр ReFrames формата : 10 кадров
Идентификатор кодека : V_MPEG4/ISO/AVC
Продолжительность : 1 ч. 26 м.
Битрейт : 1963 Кбит/сек
Ширина : 1024 пикселя
Высота : 428 пикселей
Соотношение сторон : 2,40:1
Режим частоты кадров : Постоянный
Частота кадров : 24,000 кадра/сек
Цветовое пространство : YUV
Субдискретизация насыщенности : 4:2:0
Битовая глубина : 8 бит
Тип развёртки : Прогрессивная
Бит/(Пиксели*Кадры) : 0.187
Размер потока : 1,18 Гбайт (70%)
Библиотека кодирования : x264 core 146 r2538 121396c
Настройки программы : cabac=1 / ref=10 / deblock=1:-3:-3 / analyse=0x3:0x113 / me=umh / subme=11 / psy=1 / psy_rd=0.99:0.04 / mixed_ref=1 / me_range=48 / chroma_me=1 / trellis=2 / 8x8dct=1 / cqm=0 / deadzone=21,11 / fast_pskip=1 / chroma_qp_offset=-3 / threads=6 / lookahead_threads=1 / sliced_threads=0 / nr=0 / decimate=1 / interlaced=0 / bluray_compat=0 / constrained_intra=0 / bframes=11 / b_pyramid=2 / b_adapt=2 / b_bias=0 / direct=3 / weightb=1 / open_gop=0 / weightp=2 / keyint=240 / keyint_min=24 / scenecut=40 / intra_refresh=0 / rc_lookahead=40 / rc=2pass / mbtree=0 / bitrate=1963 / ratetol=1.0 / qcomp=0.60 / qpmin=0 / qpmax=69 / qpstep=4 / cplxblur=20.0 / qblur=0.5 / vbv_maxrate=50000 / vbv_bufsize=62500 / nal_hrd=none / filler=0 / ip_ratio=1.40 / pb_ratio=1.30 / aq=1:1.00
Язык : English
Default : Да
Forced : Нет

Аудио #1
Идентификатор : 2
Формат : AC-3
Формат/Информация : Audio Coding 3
Расширение режима : CM (complete main)
Параметр Endianness формата : Big
Идентификатор кодека : A_AC3
Продолжительность : 1 ч. 26 м.
Вид битрейта : Постоянный
Битрейт : 384 Кбит/сек
Каналы : 6 каналов
Расположение каналов : Front: L C R, Side: L R, LFE
Частота : 48,0 КГц
Частота кадров : 31,250 кадров/сек (1536 spf)
Битовая глубина : 16 бит
Метод сжатия : С потерями
Размер потока : 238 Мбайт (14%)
Заголовок : DUB [iTunes]
Язык : Russian
Default : Да
Forced : Нет

Аудио #2
Идентификатор : 3
Формат : AC-3
Формат/Информация : Audio Coding 3
Расширение режима : CM (complete main)
Параметр Endianness формата : Big
Идентификатор кодека : A_AC3
Продолжительность : 1 ч. 26 м.
Вид битрейта : Постоянный
Битрейт : 448 Кбит/сек
Каналы : 6 каналов
Расположение каналов : Front: L C R, Side: L R, LFE
Частота : 48,0 КГц
Частота кадров : 31,250 кадров/сек (1536 spf)
Битовая глубина : 16 бит
Метод сжатия : С потерями
Размер потока : 277 Мбайт (16%)
Заголовок : [Original]
Язык : English
Default : Нет
Forced : Нет

Текст #1
Идентификатор : 4
Формат : UTF-8
Идентификатор кодека : S_TEXT/UTF8
Идентификатор кодека/Информация : UTF-8 Plain Text
Продолжительность : 1 ч. 20 м.
Битрейт : 86 бит/сек
Count of elements : 1384
Размер потока : 51,3 Кбайт (0%)
Заголовок : Full
Язык : English
Default : Нет
Forced : Нет

Текст #2
Идентификатор : 5
Формат : UTF-8
Идентификатор кодека : S_TEXT/UTF8
Идентификатор кодека/Информация : UTF-8 Plain Text
Продолжительность : 1 ч. 21 м.
Битрейт : 94 бит/сек
Count of elements : 1522
Размер потока : 56,4 Кбайт (0%)
Заголовок : SDH
Язык : English
Default : Нет
Forced : Нет

Меню
00:00:00.000 : en:Chapter 1
00:08:57.791 : en:Chapter 2
00:14:35.041 : en:Chapter 3
00:22:16.541 : en:Chapter 4
00:28:27.666 : en:Chapter 5
00:36:07.708 : en:Chapter 6
00:41:29.166 : en:Chapter 7
00:49:59.583 : en:Chapter 8
00:58:12.250 : en:Chapter 9
01:06:43.416 : en:Chapter 10
01:15:41.250 : en:Chapter 11
01:21:28.708 : en:Chapter 12

pb.wtf



Скачать Как женить холостяка через торрент http://img10.lostpic.net/2018/11/30/fa96dbe1ba2006235fdc0a879b8621fb.jpg Скачать фильм Как женить холостяка через торрент бесплантно в хорошем качестве Описание: Закоренелый холостяк Фрэнк и коварная соблазнительница Линдси приглашены на одну свадьбу. Странным образом они везде оказываются ... 10 10 3
Торрент: Зарегистрирован [2018-11-30 13:32] · скачан: 211 раз
Статус: √ проверено
Размер: 1.69 GB
Как cкачать? Как скачать Как женить холостяка через торрент | qTorrent

% Раздел Тема Автор DL S | L
Фильмы 2018 [DVDrip, WEB-DLRip, HDrip] (DUB, MVO) [ 1.42 GB ] Как женить холостяка / Destination Wedding [2018 BDRip] - Twi7ter Скачать
4 | 0
Видео для КПК и Смартфонов [ 328 MB ] Как женить холостяка / Destination Wedding [2018 HDRip КПК] sergey82 Скачать
1 | 0
Фильмы 2018 [DVDrip, WEB-DLRip, HDrip] (DUB, MVO) [ 746 MB ] Как женить холостяка / Destination Wedding [2018 BDRip] bober100 Скачать
1 | 0
Фильмы [HD 720p, 1080p] (Хороший звук DUB, MVO) [ 3.05 GB ] Как женить холостяка / Destination Wedding [2018 BDRip 720p] bober100 Скачать
1 | 0
Фильмы [HD 720p, 1080p] (Хороший звук DUB, MVO) [ 7.47 GB ] Как женить холостяка / Destination Wedding [2018 BDRip 1080p] bober100 Скачать
1 | 0
Фильмы 2018 [DVDrip, WEB-DLRip, HDrip] (DUB, MVO) [ 1.43 GB ] Как женить холостяка / Destination Wedding [2018 BDRip] bober100 Скачать
2 | 0
Фильмы (Blu-ray, BD-Remux, HDDVD) [ 14.73 GB ] Как женить холостяка / Destination Wedding [2018 BD Remux 1080p] bober100 Скачать
2 | 0

28-11-2019 20:33  

Отключить всю рекламу на сайте

    Дорогой пользователь! Огромная просьба, поблагодарите релизера, оцените раздачу и оставьте свои комментарий, если Вы скачали Как женить холостяка через торрент бесплатно! Внесите свою лепту в развитие PiratBit!
    Комментировать посты могут только пользователи прошедшие не сложную регистрацию
    Показать сообщения:    

    Как женить холостяка через торрент
    Скачать бесплатно Как женить холостяка
    Как женить холостяка скачать торрент
    Как женить холостяка смотреть онлайн
    Cкачать фильм Как женить холостяка бесплатно
    Как женить холостяка скачать торрент в хорошем качестве
    Как женить холостяка смотреть онлайн бесплатно в хорошем качестве


    Вы не можете начинать темы
    Вы не можете отвечать на сообщения
    Вы не можете редактировать свои сообщения
    Вы не можете удалять свои сообщения
    Вы не можете голосовать в опросах
    Вы не можете прикреплять файлы к сообщениям
    Вы можете скачивать файлы