новый адрес
Мега распродажа FORZA HORIZON 4 ULTIMATE+ВСЕ DLC+ОНЛАЙН всего за 499р. 349 руб. (супер цена). Внимание количество ограничено!!!

iTunes

1+1

iTunes

мы

iTunes

1

iTunes

Чернобыль

iTunes

Ральф против интернета

Лицензия

ПШазам

Лицензия

Оно 2

Лицензия

30
pack

ВАЖНО

!!Акция!!

Alien_RageХит недели

RePack

Resident Evil 21

ИГРА 18+

pack

RePack

jed

!!Акция!!

Alien_Rage

RePack

fifa19

RePack

Assassins Creed: Odyssey

RePack

NEED FOR SPEED™ PAYBACK

3 сезон

9 сезон

Бесстыжие 9 сезон

Все сериалы

все сериалы на PB.wtf

RePack

FAR CRY 5
Ребята, катастрофически не хватает 1900р. для оплаты серверов за Октябрь (всвязи с блокировками трафик упал в 3 раза), 1-2р., выручайте.
  

Свадьба в Малиновке (Андрей Тутышкин) [1967, мюзикл, комедия, BDRip-AVC] pb.wtf

Свадьба в Малиновке через торрент pb.wtf

Размер: 2.22 GB | Добавлен: 8 лет 10 мес. назад | Торрент скачан:550 раз
Скачать  

23-12-2010 16:32 Свадьба в Малиновке Скачать торрент  

Свадьба в Малиновке Год выпуска: 1967
Страна: СССР
Жанр: мюзикл, комедия
Продолжительность: 01:32:19
Перевод: оригинал
Субтитры: нет

Режиссер: Андрей Тутышкин
В ролях: Владимир Самойлов, Людмила Алфимова, Валентина Лысенко, Евгений Лебедев, Зоя Фёдорова, Гелий Сысоев, Михаил Пуговкин, Николай Сличенко, Андрей Абрикосов, Григорий Абрикосов, Михаил Водяной, Тамара Носова, Эмма Трейвас, Алексей Смирнов, Маргарита Криницына, Александр Орлов, Юрий Шепелев, Любовь Тищенко, Александр Захаров, Раиса Пироженко, Алексей Захаров, Николай Пишванов, Лев Степанов, Валентина Николаенко

Описание:
Идет гражданская воина. В украинской деревне то и дело меняется Влacть. Чтобы разделаться с бандой головорезов, красный командир уговаривает девушку Яринку разыграть ее свадьбу с атаманом...

Качество: BDRip-AVC
Формат: MKV
Видео кодек: H.264
Аудио кодек: AС3
Видео: H.264, 1024x436, 23.976 fps, ~ 2990 kbps
Аудио: Русский: 48 kHz, AC3, 3/2 (L,C,R,l,r) + LFE ch, ~ 448.00 kbps
Навигация по главамо главам: есть
General
UniqueID : 189285228103010216657346543315256339477 (0x8E6702462E4F8F44B5E0F4B035C7EC15)
Complete name : I:\Torrents\Svadba.v.Malinovke.barm.mkv
Format : Matroska
File size : 2.22 GiB
Duration : 1h 32mn
Overall bit rate : 3 440 Kbps
Encoded date : UTC 2010-12-21 20:28:43
Writing application : mkvmerge v4.4.0 ('Die Wiederkehr') built on Oct 31 2010 21:52:48
Writing library : libebml v1.0.0 + libmatroska v1.0.0
Cover : Yes / Yes

Video
ID : 1
Format : AVC
Format/Info : Advanced Video Codec
Format profile : High@L4.0
Format settings, CABAC : Yes
Format settings, ReFrames : 12 frames
Codec ID : V_MPEG4/ISO/AVC
Duration : 1h 32mn
Bit rate : 2 990 Kbps
Width : 1 024 pixels
Height : 436 pixels
Display aspect ratio : 2.35:1
Frame rate : 23.976 fps
Color space : YUV
Chroma subsampling : 4:2:0
Bit depth : 8 bits
Scan type : Progressive
Bits/(Pixel*Frame) : 0.279
Stream size : 1.89 GiB (85%)
Title : Svadba v Malinovke
Writing library : x264 core 112 r1834 a51816a
Encoding settings : cabac=1 / ref=12 / deblock=1:-2:-1 / analyse=0x3:0x113 / me=umh / subme=10 / psy=1 / psy_rd=0.90:0.00 / mixed_ref=1 / me_range=32 /
chroma_me=1 / trellis=2 / 8x8dct=1 / cqm=0 / deadzone=21,11 / fast_pskip=1 / chroma_qp_offset=-2 / threads=6 / sliced_threads=0 / nr=0 / decimate=1 / interlaced=0 /
constrained_intra=0 / bframes=9 / b_pyramid=2 / b_adapt=2 / b_bias=0 / direct=3 / weightb=1 / open_gop=0 / weightp=2 / keyint=250 / keyint_min=23 / scenecut=40 /
intra_refresh=0 / rc_lookahead=60 / rc=2pass / mbtree=1 / bitrate=2990 / ratetol=1.0 / qcomp=0.60 / qpmin=0 / qpmax=51 / qpstep=4 / cplxblur=20.0 / qblur=0.5 /
vbv_maxrate=25000 / vbv_bufsize=31250 / ip_ratio=1.40 / aq=2:1.00 / zones=42990,46080,b=2/113320,130521,b=1.5 / nal_hrd=none
Language : Russian
Matrix coefficients : BT.709-5, BT.1361, IEC 61966-2-4 709, SMPTE RP177

Audio
ID : 2
Format : AC-3
Format/Info : Audio Coding 3
Mode extension : CM (complete main)
Codec ID : A_AC3
Duration : 1h 32mn
Bit rate mode : Constant
Bit rate : 448 Kbps
Channel(s) : 6 channels
Channel positions : Front: L C R, Side: L R, LFE
Sampling rate : 48.0 KHz
Bit depth : 16 bits
Compression mode : Lossy
Stream size : 296 MiB (13%)
Title : 48 kHz, AC3, 3/2 (L,C,R,l,r) + LFE ch, ~ 448.00 kbps avg
Language : Russian

Menu
00:00:00.000 : en:Chapter 1
00:07:54.807 : en:Chapter 2
00:13:37.942 : en:Chapter 3
00:21:39.298 : en:Chapter 4
00:32:16.935 : en:Chapter 5
00:36:33.566 : en:Chapter 6
00:45:03.659 : en:Chapter 7
00:49:36.682 : en:Chapter 8
00:53:58.443 : en:Chapter 9
01:00:59.197 : en:Chapter 10
01:05:12.658 : en:Chapter 11
01:11:36.417 : en:Chapter 12
01:15:28.524 : en:Chapter 13
01:22:51.216 : en:Chapter 14
01:29:34.994 : en:Chapter 15
pb.wtf



Скачать Свадьба в Малиновке через торрент http://i14.fastpic.ru/big/2010/1223/f6/b14d9fba6bb2ec7567cbd736df8ea8f6.jpg Скачать фильм Свадьба в Малиновке через торрент бесплантно в хорошем качестве Описание:Идет гражданская воина. В украинской деревне то и дело меняется Влacть. Чтобы разделаться с бандой головорезов, красный командир ... 10 10 4
Info! Золотая раздача, скачанное не засчитывается.
Торрент: Зарегистрирован [2010-12-23 16:32] · скачан: 550 раз
Статус: √ проверено
Размер: 2.22 GB
Как cкачать? Как скачать Свадьба в Малиновке через торрент | qTorrent

% Раздел Тема Автор DL S | L
Кино СССР [ 1.46 GB ] Свадьба в Малиновке [1967 СССР мюзикл военный BDRip-AVC от AVP Studio] AVP Studio Скачать
1 | 0
Кино СССР [ 4.37 GB ] Свадьба в Малиновке [1967 СССР мюзикл военный BDRip 1080p от AVP Studio] AVP Studio Скачать
2 | 0
Кино СССР [ 2.18 GB ] Свадьба в Малиновке [1967 СССР мюзикл военный BDRip 720p от AVP Studio] AVP Studio Скачать
1 | 0
Кино СССР [ 1.09 GB ] Свадьба в Малиновке [1967 СССР мюзикл военный BDRip от AVP Studio] AVP Studio Скачать
1 | 0
# Фильмы (BDRip, HDrip-AVC) (48-60 fps) [ 11.97 GB ] Свадьба в Малиновке [1967 мюзикл BDRip-AVC by WSM] [60FPS] WorldSM Скачать
1 | 0
Наши фильмы (Blu-ray, BD-Remux, HDDVD) [ 19.31 GB ] Свадьба в Малиновке [1967 мюзикл Blu-Ray Remux Оригинал] dallas2007 Скачать
1 | 0
Документальные фильмы и телепередачи [ 646 MB ] Свадьба в Малиновке. Непридуманные истории [2013 Документальный TVRip] El240781 Скачать
1 | 0


>> Регистрируемся здесь <<






Отзывы и комментарии о схеме читаем и пишем здесь: ---> Отзывы и комментарии о схеме

Новые благодарочки в телеграм довольных пользователей:
скриншот   скриншот   скриншот   скриншот   скриншот

18-10-2011 20:22 Свадьба в Малиновке Скачать торрент  

От души,одна из лучших комедий того времени.pb.wtf



25-11-2011 04:28 Свадьба в Малиновке Скачать торрент  

и что главное,не надоедает как большинство картин времени сего.pb.wtf



18-01-2012 16:33 Свадьба в Малиновке Скачать торрент  

:good2: :good2:pb.wtf



    Дорогой пользователь! Огромная просьба, поблагодарите релизера, оцените раздачу и оставьте свои комментарий, если Вы скачали Свадьба в Малиновке через торрент бесплатно! Внесите свою лепту в развитие PiratBit!
    Комментировать посты могут только пользователи прошедшие не сложную регистрацию
    Показать сообщения:    

    Свадьба в Малиновке через торрент
    Скачать бесплатно Свадьба в Малиновке
    Свадьба в Малиновке скачать торрент
    Свадьба в Малиновке смотреть онлайн
    Cкачать фильм Свадьба в Малиновке бесплатно
    Свадьба в Малиновке скачать торрент в хорошем качестве
    Свадьба в Малиновке смотреть онлайн бесплатно в хорошем качестве


    Вы не можете начинать темы
    Вы не можете отвечать на сообщения
    Вы не можете редактировать свои сообщения
    Вы не можете удалять свои сообщения
    Вы не можете голосовать в опросах
    Вы не можете прикреплять файлы к сообщениям
    Вы можете скачивать файлы