Ссылка на приватное зеркало всего за 1$. Внимание количество ограничено!!!

OK

1+1

iTunes

мы

OK

1

WEB-DLRip

Джокер

Пифагор

Ведьмак / The Witcher сериал

iTunes

ПШазам

ОК

Оно 2

iTunes

30
pack

Вам бонус

ВАЖНО

!!Акция!!

Alien_RageХит недели

RePack

Resident Evil 21

ИГРА 18+

pack

RePack

jed

RePack

fifa19

RePack

Assassins Creed: Odyssey

RePack

NEED FOR SPEED™ PAYBACK

4 сезон

9 сезон

Бесстыжие 9 сезон

Все сериалы

все сериалы на PB.wtf

RePack

FAR CRY 5
  

Груз / [Cargo] (Джеймс Дилан) [2018, ужасы,триллер, криминал, WEB-DL 720p] MVO ["Синема УС"] pb.wtf

Груз через торрент pb.wtf

Раздают: 1 [ 0 KB/s ]
Размер: 2.89 GB | Добавлен: 1 год 1 мес. назад | Торрент скачан:81 раз
Скачать  

30-11-2018 19:12 Груз Скачать торрент  

[Груз] / [Cargo] Год выпуска: 2018
Страна: США
Жанр: ужасы,триллер, криминал
Продолжительность: 01:20:02
Перевод: Любительский (многоголосый) | "Синема УС"
Субтитры: отсутствуют

Режиссер: Джеймс Дилан

rating

В ролях:

Марк Элиот, Даника Филдс, Хосе Росете, Мэтью Росвалли, Рон Томпсон, Корбин Тимбрук, Марк Вуд

Описание:

Мужчина просыпается запертым в грузовом контейнере с одним телефоном. Похитители дают ему 24 часа, чтобы заплатить им выкуп в размере 10 миллионов долларов, иначе он и его жена погибнут.

Качество: WEB-DL 720p
Формат: MKV

Видео: h.264, 4 781 Кбит/с, 1280x538
Аудио#1: Русский, (AC3, 2 ch, 384 Кбит/с)
скриншот  скриншот  скриншот  

Общее
Уникальный идентификатор : 175783998892040588791992245432894615731 (0x843EC447D45ADF52811259A1632BF0B3)
Полное имя : D:\Cargo.2018.P.WEB-DL.72Op.mkv
Формат : Matroska
Версия формата : Version 2
Размер файла : 2,89 Гбайт
Продолжительность : 1 ч. 20 м.
Режим общего битрейта : Переменный
Общий поток : 5167 Кбит/сек
Дата кодирования : UTC 2018-11-30 18:27:02
Программа кодирования : mkvmerge v8.3.0 ('Over the Horizon') 64bit
Библиотека кодирования : libebml v1.3.1 + libmatroska v1.4.2

Видео
Идентификатор : 1
Формат : AVC
Формат/Информация : Advanced Video Codec
Профиль формата : High@L4.1
Параметр CABAC формата : Да
Параметр RefFrames формата : 4 кадра
Идентификатор кодека : V_MPEG4/ISO/AVC
Продолжительность : 1 ч. 20 м.
Вид битрейта : Переменный
Битрейт : 4781 Кбит/сек
Максимальный битрейт : 5500 Кбит/сек
Ширина : 1280 пикселей
Высота : 538 пикселей
Соотношение сторон : 2,40:1
Режим частоты кадров : Постоянный
Частота кадров : 23,976 (24000/1001) кадра/сек
Стандарт вещания : Component
Цветовое пространство : YUV
Субдискретизация насыщенности : 4:2:0
Битовая глубина : 8 бит
Тип развёртки : Прогрессивная
Бит/(Пиксели*Кадры) : 0.283
Размер потока : 2,62 Гбайт (91%)
Default : Да
Forced : Нет
Цветовой диапазон : Limited
Основные цвета : BT.709
Характеристики трансфера : BT.709
Коэффициенты матрицы : BT.709

Аудио
Идентификатор : 2
Формат : AC-3
Формат/Информация : Audio Coding 3
Расширение режима : CM (complete main)
Параметр Endianness формата : Big
Идентификатор кодека : A_AC3
Продолжительность : 1 ч. 20 м.
Вид битрейта : Постоянный
Битрейт : 384 Кбит/сек
Каналы : 2 канала
Расположение каналов : Front: L R
Частота : 48,0 КГц
Частота кадров : 31,250 кадров/сек (1536 spf)
Метод сжатия : С потерями
Размер потока : 220 Мбайт (7%)
Default : Да
Forced : Нет

pb.wtf



Скачать Груз через торрент http://img10.lostpic.net/2018/11/30/dcbfe55a505cca6a65c5ce64c3e2e904.jpg Скачать фильм Груз через торрент бесплантно в хорошем качестве Описание: Мужчина просыпается запертым в грузовом контейнере с одним телефоном. Похитители дают ему 24 часа, чтобы заплатить им выкуп в ... 10 10 3
Торрент: Зарегистрирован [2018-11-30 19:12] · скачан: 81 раз
Статус: T временная
Размер: 2.89 GB
Как cкачать? Как скачать Груз через торрент | qTorrent

% Раздел Тема Автор DL S | L
Фильмы [HD 720p, 1080p] (Хороший звук DUB, MVO) [ 9.25 GB ] Агент Джонни Инглиш: Перезагрузка / Johnny English Reborn [2011 BDRip ] m9sо Скачать
1 | 0
Сервисное обслуживание компьютера [ 1.33 GB ] Загрузочная флешка с Acronis Disk Director 11 True Image 2012 Paragon Partition Manager 11 2012 x86+x64 [2011 RUS] Konondoyl Скачать
1 | 0
Гоночные симуляторы [ 1.63 GB ] Euro Truck Simulator 2 / С грузом по Европе 3 [Repack RUS / ENG / MULTI34] - R.G. Steamgames Яйцеслав Скачать
1 | 0
Сервисное обслуживание компьютера [ 7.3 GB ] Загрузочная флешка Filth Edition 2012 2.1 2012 [Multi / Rus] Ruvest Скачать
1 | 0
Наши фильмы, до 2010 [ 1.84 GB ] Груз 200 / Gruz 200 [2007 DVDRip] tyry999 Скачать
1 | 0
Фильмы 2001-2005 [ 1.89 GB ] Матрица: Перезагрузка / Matrix Reloaded The [2003 BDRip 1080p] Andruuha Скачать
1 | 0
Наши фильмы, до 2010 [ 1.46 GB ] Груз 200 [2007 BDRip] NarutoSasuke Скачать
1 | 0


Последний раз редактировалось: bober100 (2018-12-01 14:42), всего редактировалось 1 раз

28-11-2019 20:33  

Отключить всю рекламу на сайте

    Дорогой пользователь! Огромная просьба, поблагодарите релизера, оцените раздачу и оставьте свои комментарий, если Вы скачали Груз через торрент бесплатно! Внесите свою лепту в развитие PiratBit!
    Комментировать посты могут только пользователи прошедшие не сложную регистрацию
    Показать сообщения:    

    Груз через торрент
    Скачать бесплатно Груз
    Груз скачать торрент
    Груз смотреть онлайн
    Cкачать фильм Груз бесплатно
    Груз скачать торрент в хорошем качестве
    Груз смотреть онлайн бесплатно в хорошем качестве


    Вы не можете начинать темы
    Вы не можете отвечать на сообщения
    Вы не можете редактировать свои сообщения
    Вы не можете удалять свои сообщения
    Вы не можете голосовать в опросах
    Вы не можете прикреплять файлы к сообщениям
    Вы можете скачивать файлы