Anonymous, добрый вечер, присоединяйтесь к нам в Telegram!, здесь всегда актуальный адрес сайта, оперативная поддержка и многое другое!

>

5.6

iTunes

7.4

MVO

5.7

MVO

1

7.7

1 сезон

6.8

iTunes

7.3

1 сезон

13

6.7

1 сезон

8.3

RePack

30

ULTIMATE

pack

9.9

Лицензия

ВАЖНО

ИГРА 18+

pack

7.3

RePack

MK11

7.7

RePack

jed

7.8

RePack

fifa19

8.5

RePack

RDR2

RePack

NEED FOR SPEED™ PAYBACK

4 сезон

9 сезон

Бесстыжие 9 сезон

Все сериалы

все сериалы на PB.wtf

RePack

FAR CRY 5

Anonymous, добрый вечер, мы катастрофически не успеваем собрать деньги на оплату серверов, помогите нам пожалуйста 5,10,15р., для нас важна любая помощь . В качестве благодарности мы отключим Вам всю рекламу на сайте (укажите свой ник в строку Ваше имя)!

×
  
Magnet ссылка

Звоните ДиКаприо! / Сезон: 1 / Серии: 1-8 из 8 (Жора Крыжовников) [2018, комедия, драма, WEB-DLRip-AVC] - ExKinoRay pb.wtf

Звоните ДиКаприо! через торрент pb.wtf

Размер: 4.84 GB | Добавлен: 2 года 10 мес. назад | Торрент скачан:487 раз
Смотреть онлайн Звоните ДиКаприо! | Скачать    Ребята, помогите собрать деньги на оплату серверов!!!

01-12-2018 02:32 Звоните ДиКаприо! Скачать торрент  

Информация о фильме
Название: Звоните ДиКаприо!
Год выхода: 2018
Жанр: Комедия, драма
Режиссер: Жора Крыжовников
В ролях: Александр Петров, Андрей Бурковский, Юлия Александрова, Юлия Хлынина, Александра Ревенко, Антон Васильев, Анна Невская, Яна Кошкина, Игорь Миркурбанов, Наталья Потапова

Описание:
История об отношениях и судьбах двух братьев. Егор Румянцев — звезда хитового сериала про врачей. Он слетает с катушек от успеха: срывает съемки, путается в любовных связях, всем врет. Румянцев чувствует себя неуязвимым и живет для себя, ни во что не ставя чувства других людей. Но в один миг его мир переворачивается. Он узнает, что у него ВИЧ. Полная его противоположность — брат Лев. Он работает на кабельном телеканале «Муравей-ТВ», где ведет никому не нужную программу о полезных поделках. В съемной квартире его ждут беременная жена и две маленькие дочки. При этом ни денег, ни перспектив их заработать. Лев завидует брату и даже не мечтает занять его место, пока однажды ему не представляется такой шанс.

Страна: Россия
Студия: Good Story Media
Продолжительность: 8 х ~ 00:50:00
Язык: Русский

Качество: WEBRip-AVC
Видео: MPEG-4 AVC, ~ 1700 Кбит/с, 720x404 (16:9), 25.000 fps
Аудио: 48 kHz, AC3, 2.0 ch, 192 Kbps

Реклама, любого вида, отсутствует.
General
Unique ID : 206943376650459835089277816833145488858 (0x9BAFD836F18F4A77BDD1234324E6C5DA)
Complete name : D:\\Zvonite.DiKaprio.2018.WEB-DLRip.AVC.ExKinoRay\Zvonite.DiKaprio.e02.2018.WEB-DLRip.AVC.ExKinoRay.mkv
Format : Matroska
Format version : Version 2
File size : 614 MiB
Duration : 45 min
Overall bit rate : 1 893 kb/s
Movie name : Звоните ДиКаприо! e02 2018 from ExKinoRay
Encoded date : UTC 2018-10-20 00:00:28
Writing application : mkvmerge v5.6.0 ('Kenya Kane') built on May 27 2012 16:44:04
Writing library : libebml v1.2.3 + libmatroska v1.3.0

Video
ID : 1
Format : AVC
Format/Info : Advanced Video Codec
Format profile : High@L4.1
Format settings, CABAC : Yes
Format settings, ReFrames : 11 frames
Codec ID : V_MPEG4/ISO/AVC
Duration : 45 min
Bit rate : 1 700 kb/s
Width : 720 pixels
Height : 404 pixels
Display aspect ratio : 16:9
Frame rate mode : Constant
Frame rate : 25.000 FPS
Color space : YUV
Chroma subsampling : 4:2:0
Bit depth : 8 bits
Scan type : Progressive
Bits/(Pixel*Frame) : 0.234
Stream size : 539 MiB (88%)
Title : Enigma
Writing library : x264 core 152 r2851 ba24899
Encoding settings : cabac=1 / ref=11 / deblock=1:-2:-2 / analyse=0x3:0x113 / me=umh / subme=10 / psy=1 / psy_rd=1.05:0.10 / mixed_ref=1 / me_range=32 / chroma_me=1 / trellis=2 / 8x8dct=1 / cqm=0 / deadzone=21,11 / fast_pskip=0 / chroma_qp_offset=-3 / threads=12 / lookahead_threads=3 / sliced_threads=0 / nr=0 / decimate=0 / interlaced=0 / bluray_compat=0 / constrained_intra=0 / bframes=12 / b_pyramid=2 / b_adapt=2 / b_bias=0 / direct=3 / weightb=1 / open_gop=0 / weightp=2 / keyint=250 / keyint_min=25 / scenecut=40 / intra_refresh=0 / rc=2pass / mbtree=0 / bitrate=1700 / ratetol=1.0 / qcomp=0.60 / qpmin=0 / qpmax=51 / qpstep=4 / cplxblur=20.0 / qblur=0.5 / ip_ratio=1.40 / pb_ratio=1.30 / aq=1:1.00
Default : Yes
Forced : No
Color range : Limited
Color primaries : BT.709
Transfer characteristics : BT.709
Matrix coefficients : BT.709

Audio
ID : 2
Format : AC-3
Format/Info : Audio Coding 3
Mode extension : CM (complete main)
Format settings, Endianness : Big
Codec ID : A_AC3
Duration : 45 min
Bit rate mode : Constant
Bit rate : 192 kb/s
Channel(s) : 2 channels
Channel positions : Front: L R
Sampling rate : 48.0 kHz
Frame rate : 31.250 FPS (1536 spf)
Compression mode : Lossy
Stream size : 62.3 MiB (10%)
Language : Russian
Default : Yes
Forced : No
Релиз от:

Автор релиза: pb.wtf



Скачать Звоните ДиКаприо! через торрент https://c.radikal.ru/c20/1810/05/b64cbfdb773c.jpg Скачать, смотреть онлайн Звоните ДиКаприо! бесплантно в хорошем качестве Описание:История об отношениях и судьбах двух братьев. Егор Румянцев — звезда хитового сериала про врачей. Он слетает с катушек от успеха: ... 9.3 10 9
Info! Золотая раздача, скачанное не засчитывается.
Торрент: Зарегистрирован [2018-12-01 02:32] · скачан: 487 раз
Статус: √ проверено
Размер: 4.84 GB
Как cкачать? Как скачать Звоните ДиКаприо! через торрент | UTorrent

28-11-2019 20:33  

Отключить всю рекламу на сайте

    Дорогой пользователь! Огромная просьба, поблагодарите релизера, оцените раздачу и оставьте свои комментарий, если Вы скачали Звоните ДиКаприо! через торрент бесплатно!
    Комментировать посты могут только пользователи прошедшие не сложную регистрацию
    Показать сообщения:    

    Звоните ДиКаприо! через торрент
    Скачать бесплатно Звоните ДиКаприо!
    Звоните ДиКаприо! скачать торрент
    Звоните ДиКаприо! смотреть онлайн
    Cкачать фильм Звоните ДиКаприо! бесплатно
    Звоните ДиКаприо! скачать торрент в хорошем качестве
    Звоните ДиКаприо! смотреть онлайн бесплатно в хорошем качестве


    Вы не можете начинать темы
    Вы не можете отвечать на сообщения
    Вы не можете редактировать свои сообщения
    Вы не можете удалять свои сообщения
    Вы не можете голосовать в опросах
    Вы не можете прикреплять файлы к сообщениям
    Вы можете скачивать файлы