Ссылка на приватное зеркало нашего сайта всего за 1$. Внимание количество ограничено!!!

2 сезон

iTunes

1 сезон

1

iTunes

iTunes

iTunes

1 сезон

RePack

30

ИГРА 18+

pack

ВАЖНО

!!Акция!!

Alien_RageХит недели

RePack

MK11
pack

Забери бонус

RePack

jed

!!Акция!!

Alien_Rage

RePack

fifa19

RePack

Assassins Creed: Odyssey

RePack

NEED FOR SPEED™ PAYBACK

4 сезон

9 сезон

Бесстыжие 9 сезон

Все сериалы

все сериалы на PB.wtf

RePack

FAR CRY 5
  

Синичка 2 / Сезон: 2 / Серии: 1-4 из 4 (Валентина Власова) [2018, Детектив, мелодрама, WEB-DL 720p] pb.wtf

Синичка 2 через торрент pb.wtf

Размер: 4.09 GB | Добавлен: 1 год 10 мес. назад | Торрент скачан:156 раз
Скачать  

01-12-2018 04:32 Синичка 2 Скачать торрент  

Синичка 2Год выпуска: 2018
Страна: Россия
Жанр: Детектив, мелодрама
Продолжительность: ~ 00:46:00
Субтитры: отсутствуют

Режиссер: Валентина Власова



В ролях:

Сергей Губанов, Глафира Тарханова, Татьяна Лютаева, Владислав Ветров, Кирилл Запорожский, Алексей Демидов, Аристарх Ливанов, Алёна Константинова, Максим Битюков, Александр Хмельницкий, Сергей Стёпин, Евгения Евстигнеева (II), Евгения Ярушникова, Игорь Захаров (IV), Павел Кузьмин

Описание:

Ночью на лесной трассе под колеса автомобиля попадает молодая девушка – Марина Мухина. Перед смертью, в бессвязном бреду она упоминает про бабочек и человека в маске. Информация о странном ДТП доходит до Лёвина. Он понимает, что смерть Мухиной – продолжение серии загадочных убийств, которые он расследовал прошлой зимой. Про девушку не удается узнать ничего, что могло бы помочь найти преступника. Единственное, что осталось после Марины – ее рисунки. Лёвин понимает, что довести до конца зимнее дело ему может помочь только один человек – Синичка. Вместе с возобновлением расследования, возвращаются и былые чувства героев, о которых они так старательно пытались забыть...

Качество: WEB-DL 720p
Формат: MKV

Видео: MPEG4 AVC Video, H264, 16:9, 1280x720, 25 fps, ~3200 kbps, 0.139 bit/pixel
Аудио: AC3 Dolby Digital, 48.0 kHz, 2/0 (L,R) ch, 192 kbps
скриншот  скриншот  скриншот  скриншот  скриншот  

General
Unique ID : 190241970850072092598275586984112575817 (0x8F1F45555F81DE5CAEDFF89C01D85549)
Complete name : D:\Sinichka-2.2018.WEB-DL.(720p).Getty\Sinichka-2.e01.2018.WEB-DL.(720p).Getty.mkv
Format : Matroska
Format version : Version 4 / Version 2
File size : 1.02 GiB
Duration : 45 min 5 s
Overall bit rate mode : Constant
Overall bit rate : 3 245 kb/s
Movie name : Sinichka-2.e01.2018.WEB-DL.(720p).Getty
Encoded date : UTC 2018-11-30 20:04:13
Writing application : mkvmerge v7.8.0 ('River Man') 32bit built on Mar 27 2015 16:18:02
Writing library : libebml v1.3.1 + libmatroska v1.4.2

Video
ID : 1
Format : AVC
Format/Info : Advanced Video Codec
Format profile : High@L4.1
Format settings : CABAC / 4 Ref Frames
Format settings, CABAC : Yes
Format settings, ReFrames : 4 frames
Codec ID : V_MPEG4/ISO/AVC
Duration : 45 min 5 s
Bit rate mode : Constant
Bit rate : 3 200 kb/s
Width : 1 280 pixels
Height : 720 pixels
Display aspect ratio : 16:9
Frame rate mode : Constant
Frame rate : 25.000 FPS
Color space : YUV
Chroma subsampling : 4:2:0
Bit depth : 8 bits
Scan type : Progressive
Bits/(Pixel*Frame) : 0.139
Stream size : 984 MiB (94%)
Default : Yes
Forced : No

Audio
ID : 2
Format : AC-3
Format/Info : Audio Coding 3
Codec ID : A_AC3
Duration : 45 min 5 s
Bit rate mode : Constant
Bit rate : 192 kb/s
Channel(s) : 2 channels
Channel positions : Front: L R
Sampling rate : 48.0 kHz
Frame rate : 31.250 FPS (1536 SPF)
Bit depth : 16 bits
Compression mode : Lossy
Stream size : 61.9 MiB (6%)
Service kind : Complete Main
Default : Yes
Forced : No

pb.wtf



Скачать Синичка 2 через торрент https://i106.fastpic.ru/big/2018/1201/27/6c7b1720d292eb6ac8f4e42e023af127.jpg Скачать фильм Синичка 2 через торрент бесплантно в хорошем качестве Описание: Ночью на лесной трассе под колеса автомобиля попадает молодая девушка – Марина Мухина. Перед смертью, в бессвязном бреду она ... 10 10 4
Торрент: Зарегистрирован [2018-12-01 04:32] · скачан: 156 раз
Статус: √ проверено
Размер: 4.09 GB
Как cкачать? Как скачать Синичка 2 через торрент | qTorrent

% Раздел Тема Автор DL S | L
Зарубежные сериалы [ 8.72 GB ] Проект «Синяя книга» / Проект засекречен / Project Blue Book / Сезон: 2 / Серии: 1-4 из 10 [2020 WEBRip 1080] [MVO] killermax2013 Скачать
1 | 1
Наши сериалы [ 2.32 GB ] Синичка 2 / Сезон: 2 / Серии: 1-4 из 4 [2018 WEB-DLRip] bober100 Скачать
1 | 0

28-11-2019 20:33  

Отключить всю рекламу на сайте

    Дорогой пользователь! Огромная просьба, поблагодарите релизера, оцените раздачу и оставьте свои комментарий, если Вы скачали Синичка 2 через торрент бесплатно! Внесите свою лепту в развитие PiratBit!
    Комментировать посты могут только пользователи прошедшие не сложную регистрацию
    Показать сообщения:    

    Синичка 2 через торрент
    Скачать бесплатно Синичка 2
    Синичка 2 скачать торрент
    Синичка 2 смотреть онлайн
    Cкачать фильм Синичка 2 бесплатно
    Синичка 2 скачать торрент в хорошем качестве
    Синичка 2 смотреть онлайн бесплатно в хорошем качестве


    Вы не можете начинать темы
    Вы не можете отвечать на сообщения
    Вы не можете редактировать свои сообщения
    Вы не можете удалять свои сообщения
    Вы не можете голосовать в опросах
    Вы не можете прикреплять файлы к сообщениям
    Вы можете скачивать файлы