Ссылка на приватное зеркало нашего сайта всего за 1$. Внимание количество ограничено!!!

2 сезон

iTunes

1 сезон

1

iTunes

iTunes

iTunes

1 сезон

RePack

30

ИГРА 18+

pack

ВАЖНО

!!Акция!!

Alien_RageХит недели

RePack

MK11
pack

Забери бонус

RePack

jed

!!Акция!!

Alien_Rage

RePack

fifa19

RePack

Assassins Creed: Odyssey

RePack

NEED FOR SPEED™ PAYBACK

4 сезон

9 сезон

Бесстыжие 9 сезон

Все сериалы

все сериалы на PB.wtf

RePack

FAR CRY 5
  

Синичка / Сезон: 1 / Серии: 1-4 из 4 (Илья Казанков) [2018, детектив, криминал, WEB-DL 720p] pb.wtf

Синичка через торрент pb.wtf

Размер: 4.08 GB | Добавлен: 1 год 10 мес. назад | Торрент скачан:164 раза
Скачать  

01-12-2018 04:43 Синичка Скачать торрент  

СиничкаГод выпуска: 2018
Страна: Россия
Жанр: детектив, криминал
Продолжительность: ~00:43:00 серия
Субтитры: отсутствуют

Режиссер: Илья Казанков



В ролях:

Глафира Тарханова, Сергей Губанов, Евгения Ярушникова, Аристарх Ливанов, Алексей Демидов, Сергей Стёпин, Александр Никольский, Михаил Коновалов, Алеся Гузько, Вера Тарасова

Описание:

В жизни 32-летней Ульяны Синицыной, сотрудницы кафедры общей психологии психфака МГУ, есть только наука. Главное ее достижение – разработка уникального метода психодиагностики на основе спонтанных рисунков людей. Только на кафедре ее тест не признают и не допускают к защите докторской. Ульяна не сдается и, желая опробовать свое изобретение на практике, устраивается в полицию штатным психологом. В качестве консультанта ее приставляют к экстравагантному следователю Игорю Левину, который является полной противоположностью Синицыной и, естественно, не верит в ее ноу-хау. Но Ульяна готова доказать, что ее метод работает, даже ценой собственной жизни.

Качество: WEB-DL 720p
Формат: MKV

Видео: MPEG4 AVC Video, H264, 16:9, 1280x720, 25 fps, ~3200 kbps, 0.139 bit/pixel
Аудио: AC3 Dolby Digital, 48.0 kHz, 2/0 (L,R) ch, 192 kbps
скриншот  скриншот  скриншот  скриншот  скриншот  

General
Unique ID : 193265536149852293294598452408076112436 (0x9165969CB920223E89CCCC4444529234)
Complete name : D:\Sinichka.2018.WEB-DL.(720p).Getty\Sinichka.e01.2018.WEB-DL.(720p).Getty.mkv
Format : Matroska
Format version : Version 4 / Version 2
File size : 1.00 GiB
Duration : 43 min 47 s
Overall bit rate mode : Constant
Overall bit rate : 3 271 kb/s
Movie name : Sinichka.e01.2018.WEB-DL.(720p).Getty
Encoded date : UTC 2018-11-23 18:25:09
Writing application : mkvmerge v7.8.0 ('River Man') 32bit built on Mar 27 2015 16:18:02
Writing library : libebml v1.3.1 + libmatroska v1.4.2

Video
ID : 1
Format : AVC
Format/Info : Advanced Video Codec
Format profile : High@L4.1
Format settings : CABAC / 4 Ref Frames
Format settings, CABAC : Yes
Format settings, ReFrames : 4 frames
Codec ID : V_MPEG4/ISO/AVC
Duration : 43 min 47 s
Bit rate mode : Constant
Bit rate : 3 200 kb/s
Width : 1 280 pixels
Height : 720 pixels
Display aspect ratio : 16:9
Frame rate mode : Constant
Frame rate : 25.000 FPS
Color space : YUV
Chroma subsampling : 4:2:0
Bit depth : 8 bits
Scan type : Progressive
Bits/(Pixel*Frame) : 0.139
Stream size : 964 MiB (94%)
Default : Yes
Forced : No

Audio
ID : 2
Format : AC-3
Format/Info : Audio Coding 3
Codec ID : A_AC3
Duration : 43 min 47 s
Bit rate mode : Constant
Bit rate : 192 kb/s
Channel(s) : 2 channels
Channel positions : Front: L R
Sampling rate : 48.0 kHz
Frame rate : 31.250 FPS (1536 SPF)
Bit depth : 16 bits
Compression mode : Lossy
Stream size : 60.1 MiB (6%)
Service kind : Complete Main
Default : Yes
Forced : No

pb.wtf



Скачать Синичка через торрент https://i106.fastpic.ru/big/2018/1124/83/e0458b8e14888f78689c8436f4180583.jpg Скачать фильм Синичка через торрент бесплантно в хорошем качестве Описание: В жизни 32-летней Ульяны Синицыной, сотрудницы кафедры общей психологии психфака МГУ, есть только наука. Главное ее достижение – ... 10 10 5
Торрент: Зарегистрирован [2018-12-01 04:43] · скачан: 164 раз
Статус: √ проверено
Размер: 4.08 GB
Как cкачать? Как скачать Синичка через торрент | qTorrent

% Раздел Тема Автор DL S | L
Наши сериалы [ 2.41 GB ] Синичка / Сезон: 4 / Серии: 1-4 из 4 [2020 WEB-DLRip-AVC] bober100 Скачать
1 | 0
Наши сериалы [ 2.42 GB ] Синичка / Сезон: 4 / Серии: 1-4 из 4 [2020 WEB-DLRip] bober100 Скачать
1 | 0
Наши сериалы [ 2.23 GB ] Синичка / Сезон: 4 / Серии: 1-4 из 4 [2020 SATRip-AVC] aleksan55 Скачать
1 | 0
Наши сериалы [ 2.4 GB ] Синичка / Сезон: 3 / Серии: 1-4 из 4 [2020 WEB-DLRip-AVC] bober100 Скачать
1 | 0
Наши сериалы [ 2.41 GB ] Синичка / Сезон: 3 / Серии: 1-4 из 4 [2020 WEB-DLRip] bober100 Скачать
1 | 0
Наши сериалы [ 2.22 GB ] Синичка / Сезон: 3 / Серии: 1-4 из 4 [2020 SATRip-AVC] aleksan55 Скачать
1 | 0
Наши сериалы [ 2.48 GB ] Синичка / Сезон: 3 / Серии: 1-4 из 4 [2020 SATRip] bober100 Скачать
1 | 0

28-11-2019 20:33  

Отключить всю рекламу на сайте

    Дорогой пользователь! Огромная просьба, поблагодарите релизера, оцените раздачу и оставьте свои комментарий, если Вы скачали Синичка через торрент бесплатно! Внесите свою лепту в развитие PiratBit!
    Комментировать посты могут только пользователи прошедшие не сложную регистрацию
    Показать сообщения:    

    Синичка через торрент
    Скачать бесплатно Синичка
    Синичка скачать торрент
    Синичка смотреть онлайн
    Cкачать фильм Синичка бесплатно
    Синичка скачать торрент в хорошем качестве
    Синичка смотреть онлайн бесплатно в хорошем качестве


    Вы не можете начинать темы
    Вы не можете отвечать на сообщения
    Вы не можете редактировать свои сообщения
    Вы не можете удалять свои сообщения
    Вы не можете голосовать в опросах
    Вы не можете прикреплять файлы к сообщениям
    Вы можете скачивать файлы