MEGA SALE -50% FORZA HORIZON 4 ULTIMATE+ВСЕ DLC+ОНЛАЙН всего за 599р. 299 руб. (супер цена). Внимание количество ограничено!!!

iTunes

1+1

iTunes

мы

iTunes

1

iTunes

Чернобыль

iTunes

Ральф против интернета

Лицензия

ПШазам

Лицензия

Игра престолов

Лицензия

30
pack

ВАЖНО

!!Акция!!

Alien_RageХит недели

RePack

Resident Evil 21

ИГРА 18+

pack

RePack

Metro:Exodus

!!Акция!!

Alien_Rage

RePack

fifa19

RePack

Assassins Creed: Odyssey

RePack

NEED FOR SPEED™ PAYBACK

3 сезон

9 сезон

Бесстыжие 9 сезон

Все сериалы

все сериалы на PB.wtf

RePack

FAR CRY 5
Ребята, катастрофически не хватает 7730р. для оплаты серверов за АВГУСТ (всвязи с блокировками трафик упал в 3 раза), 1-2р., выручайте.
  

Поиск / Searching (Аниш Чаганти) [2018, триллер, драма, детектив BDRip-HEVC 1080p] DUB [iTunes] pb.wtf

Поиск через торрент pb.wtf

Раздают: 6 [ 0 KB/s ]
Размер: 5.09 GB | Добавлен: 9 мес. назад | Торрент скачан:833 раза
Скачать  

01-12-2018 05:39 Поиск Скачать торрент  

Поиск / Searching
Год выпуска: 2018
Страна: США
Жанр: триллер, драма, детектив
Продолжительность: 01:42:22
Перевод: Дублированный | iTunes
Субтитры: Русские (форсированные, полные), английские

Режиссер: Аниш Чаганти

rating

В ролях:

Джон Чо, Сара Сон, Алекс Джейн Го, Меган Лю, Кья Рассвет Лау, Мишель Ла, Джозеф Ли, Доминик Хоффман, Сильвия Минасян, Мелисса Дисней

Описание:

16-летняя дочь Дэвида Кима пропадает без следа, полиция разводит руками. Отчаявшийся отец взламывает компьютер девочки, чтобы понять, что он ничего не знает про дочь...

Качество: BDRip-HEVC 1080p
Формат: MKV

Видео: HEVC/H.265, 1920x1080, ~6098 Kbps, 8 бит
Аудио#1: AC3, 6 ch, 384 Kbps - Дублированный
Аудио#2: AC3, 6 ch, 640 Kbps - Английский
скриншот  скриншот  скриншот  скриншот  

Общее
Уникальный идентификатор : 107191143140886666862131794744080601657 (0x50A443635B51E76AF3182E0BBD281239)
Полное имя : F:РАЗДАЧИsearching hevc 1080p.mkv
Формат : Matroska
Версия формата : Version 4 / Version 2
Размер файла : 5,09 Гбайт
Продолжительность : 1 ч. 42 м.
Общий поток : 7124 Кбит/сек
Название фильма : Searching
Дата кодирования : UTC 2018-11-25 14:34:54
Программа кодирования : mkvmerge v27.0.0 ('Metropolis') 64-bit
Библиотека кодирования : libebml v1.3.6 + libmatroska v1.4.9

Видео
Идентификатор : 1
Формат : HEVC
Формат/Информация : High Efficiency Video Coding
Профиль формата : Main@L4@High
Идентификатор кодека : V_MPEGH/ISO/HEVC
Продолжительность : 1 ч. 42 м.
Битрейт : 6098 Кбит/сек
Ширина : 1920 пикселей
Высота : 1080 пикселей
Соотношение сторон : 16:9
Режим частоты кадров : Постоянный
Частота кадров : 23,976 (24000/1001) кадра/сек
Цветовое пространство : YUV
Субдискретизация насыщенности : 4:2:0
Битовая глубина : 8 бит
Бит/(Пиксели*Кадры) : 0.123
Размер потока : 4,36 Гбайт (86%)
Заголовок : Searching (2018) - Encoded by Immortel
Библиотека кодирования : x265 2.8+74-fd517ae68f93:[Windows][GCC 8.2.1][64 bit] 8bit+10bit
Настройки программы : cpuid=1111039 / frame-threads=2 / numa-pools=4 / wpp / pmode / no-pme / no-psnr / no-ssim / log-level=2 / input-csp=1 / input-res=1920x1080 / interlace=0 / total-frames=0 / level-idc=40 / high-tier=1 / uhd-bd=0 / ref=4 / no-allow-non-conformance / repeat-headers / annexb / aud / hrd / info / hash=0 / no-temporal-layers / no-open-gop / min-keyint=24 / keyint=240 / gop-lookahead=0 / bframes=6 / b-adapt=2 / b-pyramid / bframe-bias=0 / rc-lookahead=48 / lookahead-slices=1 / scenecut=40 / radl=0 / no-intra-refresh / ctu=64 / min-cu-size=8 / no-rect / no-amp / max-tu-size=32 / tu-inter-depth=1 / tu-intra-depth=4 / limit-tu=0 / rdoq-level=0 / dynamic-rd=0.00 / no-ssim-rd / signhide / no-tskip / nr-intra=0 / nr-inter=0 / no-constrained-intra / no-strong-intra-smoothing / max-merge=5 / limit-refs=1 / no-limit-modes / me=3 / subme=4 / merange=57 / temporal-mvp / weightp / weightb / no-analyze-src-pics / deblock=0:0 / no-sao / no-sao-non-deblock / rd=4 / no-early-skip / no-rskip / no-fast-intra / no-tskip-fast / no-cu-lossless / no-b-intra / no-splitrd-skip / rdpenalty=0 / psy-rd=1.00 / psy-rdoq=0.00 / no-rd-refine / no-lossless / cbqpoffs=0 / crqpoffs=0 / rc=crf / crf=16.0 / qcomp=0.60 / qpstep=4 / stats-write=0 / stats-read=0 / vbv-maxrate=30000 / vbv-bufsize=30000 / vbv-init=0.9 / crf-max=0.0 / crf-min=0.0 / ipratio=1.40 / pbratio=1.30 / aq-mode=2 / aq-strength=1.00 / cutree / zone-count=0 / no-strict-cbr / qg-size=32 / no-rc-grain / qpmax=69 / qpmin=0 / no-const-vbv / sar=1 / overscan=0 / videoformat=5 / range=0 / colorprim=1 / transfer=1 / colormatrix=1 / chromaloc=0 / display-window=0 / max-cll=0,0 / min-luma=0 / max-luma=255 / log2-max-poc-lsb=8 / vui-timing-info / vui-hrd-info / slices=1 / no-opt-qp-pps / no-opt-ref-list-length-pps / no-multi-pass-opt-rps / scenecut-bias=0.05 / no-opt-cu-delta-qp / aq-motion / no-hdr / no-hdr-opt / no-dhdr10-opt / no-idr-recovery-sei / analysis-reuse-level=5 / scale-factor=0 / refine-intra=0 / refine-inter=0 / refine-mv=0 / no-limit-sao / ctu-info=0 / no-lowpass-dct / refine-mv-type=0 / copy-pic=1 / max-ausize-factor=1.0 / no-dynamic-refine / no-single-sei
Default : Да
Forced : Да
Цветовой диапазон : Limited
Основные цвета : BT.709
Характеристики трансфера : BT.709
Коэффициенты матрицы : BT.709

Аудио #1
Идентификатор : 2
Формат : AC-3
Формат/Информация : Audio Coding 3
Идентификатор кодека : A_AC3
Продолжительность : 1 ч. 42 м.
Вид битрейта : Постоянный
Битрейт : 384 Кбит/сек
Каналы : 6 каналов
Расположение каналов : Front: L C R, Side: L R, LFE
Частота : 48,0 КГц
Частота кадров : 31,250 кадров/сек (1536 SPF)
Битовая глубина : 16 бит
Метод сжатия : С потерями
Размер потока : 281 Мбайт (5%)
Заголовок : Dubbing (iTunes)
Язык : Russian
ServiceKind/ : Complete Main
Default : Да
Forced : Да

Аудио #2
Идентификатор : 3
Формат : AC-3
Формат/Информация : Audio Coding 3
Идентификатор кодека : A_AC3
Продолжительность : 1 ч. 42 м.
Вид битрейта : Постоянный
Битрейт : 640 Кбит/сек
Каналы : 6 каналов
Расположение каналов : Front: L C R, Side: L R, LFE
Частота : 48,0 КГц
Частота кадров : 31,250 кадров/сек (1536 SPF)
Битовая глубина : 16 бит
Метод сжатия : С потерями
Размер потока : 469 Мбайт (9%)
Заголовок : Original
Язык : English
ServiceKind/ : Complete Main
Default : Нет
Forced : Нет

Текст #1
Идентификатор : 4
Формат : UTF-8
Идентификатор кодека : S_TEXT/UTF8
Идентификатор кодека/Информация : UTF-8 Plain Text
Продолжительность : 1 ч. 35 м.
Битрейт : 54 бит/сек
ElementCount : 531
Размер потока : 37,8 Кбайт (0%)
Заголовок : Forced
Язык : Russian
Default : Да
Forced : Да

Текст #2
Идентификатор : 5
Формат : UTF-8
Идентификатор кодека : S_TEXT/UTF8
Идентификатор кодека/Информация : UTF-8 Plain Text
Продолжительность : 1 ч. 36 м.
Битрейт : 78 бит/сек
ElementCount : 984
Размер потока : 55,8 Кбайт (0%)
Язык : Russian
Default : Нет
Forced : Нет

Текст #3
Идентификатор : 6
Формат : UTF-8
Идентификатор кодека : S_TEXT/UTF8
Идентификатор кодека/Информация : UTF-8 Plain Text
Продолжительность : 1 ч. 32 м.
Битрейт : 52 бит/сек
ElementCount : 1020
Размер потока : 35,9 Кбайт (0%)
Язык : English
Default : Нет
Forced : Нет

Меню
00:00:00.000 : :00:00:00.000
00:06:25.385 : :00:06:25.385
00:12:41.636 : :00:12:41.636
00:20:13.546 : :00:20:13.546
00:23:12.850 : :00:23:12.850
00:31:01.651 : :00:31:01.651
00:35:49.647 : :00:35:49.647
00:39:39.460 : :00:39:39.460
00:47:27.845 : :00:47:27.845
00:53:31.708 : :00:53:31.708
00:59:16.928 : :00:59:16.928
01:05:29.217 : :01:05:29.217
01:13:07.258 : :01:13:07.258
01:21:14.620 : :01:21:14.620
01:26:07.204 : :01:26:07.204
01:34:32.792 : :01:34:32.792

pb.wtf



Скачать Поиск через торрент https://b.radikal.ru/b39/1811/f1/7132ab8c8767.jpg Скачать фильм Поиск через торрент бесплантно в хорошем качестве Описание: 16-летняя дочь Дэвида Кима пропадает без следа, полиция разводит руками. Отчаявшийся отец взламывает компьютер девочки, чтобы ... 9.8 10 8
Info! Золотая раздача, скачанное не засчитывается.
Торрент: Зарегистрирован [2018-12-01 05:39] · скачан: 833 раз
Статус: √ проверено
Размер: 5.09 GB
Как cкачать? Как скачать Поиск через торрент | qTorrent

% Раздел Тема Автор DL S | L
Фильмы (HD 720p, 1080p) (48-60 fps) [ 7.28 GB ] Поиск / Searching [2018 BDRip 720p 60 fps] [Локализованная версия] sheker187 Скачать
1 | 0
Фильмы [HD 720p, 1080p] (Хороший звук DUB, MVO) [ 7.89 GB ] Поиск / Searching [2018 BDRip 1080p] [Локализованная версия] DUB [] bober100 Скачать
4 | 0
Фильмы 2018 [DVDrip, WEB-DLRip, HDrip] (DUB, MVO) [ 1.46 GB ] Поиск / Searching [2018 BDRip] - [] Twi7ter Скачать
4 | 0
Фильмы 2018 [DVDrip, WEB-DLRip, HDrip] (DUB, MVO) [ 746 MB ] Поиск / Searching [2018 BDRip] [Локализованная версия] DUB [ BD CEE] bober100 Скачать
1 | 0
Фильмы 2018 [DVDrip, WEB-DLRip, HDrip] (DUB, MVO) [ 1.46 GB ] Поиск / Searching [2018 BDRip] [Локализованная версия] DUB [ BD CEE] bober100 Скачать
2 | 0
Фильмы 2018 [DVDrip, WEB-DLRip, HDrip] (DUB, MVO) [ 2.37 GB ] Поиск / Searching [2018 BDRip-AVC] [Локализованная версия] DUB [ BD CEE] -Lexx- Скачать
1 | 0
Фильмы (WEB-DL 720p, 1080p) [ 3.98 GB ] Поиск / Searching [2018 WEB-DL 1080p] [Локализованная версия] killermax2013 Скачать
21 | 0


>> Регистрируемся здесь <<






Отзывы и комментарии о схеме читаем и пишем здесь: ---> Отзывы и комментарии о схеме

Новые благодарочки в телеграм довольных пользователей:
скриншот   скриншот   скриншот   скриншот   скриншот

01-12-2018 06:28 Поиск Скачать торрент  

Podskazyte dobryje liudy, a sto znatsyt nadpyska 8 бит??? ili byvajet 10бит?? mne prosto interesno, ob ciom eto?? s raneje sposybo!!! :)pb.wtf



07-12-2018 21:27 Поиск Скачать торрент  

Я уже думал что так никто не пишетpb.wtf



14-12-2018 16:27 Поиск Скачать торрент  

BioDieselLTU писал(а):

Podskazyte dobryje liudy, a sto znatsyt nadpyska 8 бит??? ili byvajet 10бит?? mne prosto interesno, ob ciom eto?? s raneje sposybo!!! :)

Что?pb.wtf



14-12-2018 16:35 Поиск Скачать торрент  

Ну всякое видео бывает и 8 и 10 и 12 бит.pb.wtf



05-01-2019 14:20 Поиск Скачать торрент  

Бывает 8 16 32 64 и т.д. Разве нет? Чувак с транслитом, ты просто фурор произвел!pb.wtf



    Дорогой пользователь! Огромная просьба, поблагодарите релизера, оцените раздачу и оставьте свои комментарий, если Вы скачали Поиск через торрент бесплатно! Внесите свою лепту в развитие PiratBit!
    Комментировать посты могут только пользователи прошедшие не сложную регистрацию
    Показать сообщения:    

    Поиск через торрент
    Скачать бесплатно Поиск
    Поиск скачать торрент
    Поиск смотреть онлайн
    Cкачать фильм Поиск бесплатно
    Поиск скачать торрент в хорошем качестве
    Поиск смотреть онлайн бесплатно в хорошем качестве


    Вы не можете начинать темы
    Вы не можете отвечать на сообщения
    Вы не можете редактировать свои сообщения
    Вы не можете удалять свои сообщения
    Вы не можете голосовать в опросах
    Вы не можете прикреплять файлы к сообщениям
    Вы можете скачивать файлы