MEGA SALE -50% FORZA HORIZON 4 ULTIMATE+ВСЕ DLC+ОНЛАЙН всего за 599р. 299 руб. (супер цена). Внимание количество ограничено!!!

iTunes

1+1

iTunes

мы

iTunes

1

iTunes

Чернобыль

iTunes

Ральф против интернета

Лицензия

ПШазам

Лицензия

Игра престолов

Лицензия

30
pack

ВАЖНО

!!Акция!!

Alien_RageХит недели

RePack

Resident Evil 21

ИГРА 18+

pack

RePack

Metro:Exodus

!!Акция!!

Alien_Rage

RePack

fifa19

RePack

Assassins Creed: Odyssey

RePack

NEED FOR SPEED™ PAYBACK

3 сезон

9 сезон

Бесстыжие 9 сезон

Все сериалы

все сериалы на PB.wtf

RePack

FAR CRY 5
Ребята, катастрофически не хватает 7730р. для оплаты серверов за АВГУСТ (всвязи с блокировками трафик упал в 3 раза), 1-2р., выручайте.
  

Маленькая барабанщица / The Little Drummer Girl / Сезон: 1 / Серии: 1-6 из 6 (Пак Чхан-ук) [2018, Триллер, драма, WEBRip 1080p] [MVO] (NewStudio) pb.wtf

Маленькая барабанщица через торрент pb.wtf

Раздают: 1 [ 0 KB/s ]
Размер: 25.94 GB | Добавлен: 9 мес. назад | Торрент скачан:20 раз
Скачать  

01-12-2018 09:41 Маленькая барабанщица Скачать торрент  

Маленькая барабанщица / The Little Drummer Girl
Год выпуска: 2018
Страна: Великобритания, США
Жанр: триллер, драма
Продолжительность: ~00:56:00
Перевод: Профессиональный (многоголосый закадровый) | NewStudio
Режиссёр: Пак Чхан-ук
В ролях: Флоренс Пью, Александр Скарсгард, Майкл Шеннон, Майкл Мошонов, Симона Браун, Клер Холман, Кейт Самптер, Геннадий Флейшер, Амир Хури, Катарина Шюттлер и др.
Описание: Будучи на отдыхе в Греции, молодая актриса Чарли знакомится с Беккером. Довольно скоро выясняется, что мужчиной движет не любовный интерес. Он — офицер израильской разведки, который втягивает Чарли в смертельно опасную борьбу западных спецслужб с терроризмом в Европе и на Ближнем Востоке.

rating скриншот  
Качество: WEBRip 1080p (исх. WEBRip AMZN 1080p)
Контейнер: MKV
Видео: 1920x1080, 25 fps, MPEG-4 AVC, ~7726 kbps, 0.149 bits/pixel
Аудио#1 Rus: 48 kHz, AC3, 3/2 (L,C,R,l,r) + LFE ch, 384.00 kbps | NewStudio
Аудио#2 Eng: 48 kHz, E-AC3, 3/2 (L,C,R,l,r) + LFE ch, 640.00 kbps
Субтитры: Русские (Full, Forced)
Перевод: Булат Карабасов
Очистка от рекламы и подготовка релиза: ad3wal3

General
Unique ID : 186652770989970843348488600824760700123 (0x8C6C041E299C1375868C6404FBA30CDB)
Complete name : I:\The.Little.Drummer.Girl.S01E01.AMZN.WEBRip.1080p.NewStudio.mkv
Format : Matroska
Format version : Version 4 / Version 2
File size : 3.42 GiB
Duration : 55 min 58 s
Overall bit rate : 8 753 kb/s
Encoded date : UTC 2018-11-10 09:36:59
Writing application : mkvmerge v8.3.0 ('Over the Horizon') 32bit
Writing library : libebml v1.3.1 + libmatroska v1.4.2
Attachments : poster.png

Video
ID : 1
Format : AVC
Format/Info : Advanced Video Codec
Format profile : High@L4
Format settings, CABAC : Yes
Format settings, ReFrames : 4 frames
Codec ID : V_MPEG4/ISO/AVC
Duration : 55 min 58 s
Bit rate : 7 726 kb/s
Width : 1 920 pixels
Height : 1 080 pixels
Display aspect ratio : 16:9
Frame rate mode : Constant
Frame rate : 25.000 FPS
Color space : YUV
Chroma subsampling : 4:2:0
Bit depth : 8 bits
Scan type : Progressive
Bits/(Pixel*Frame) : 0.149
Stream size : 3.02 GiB (88%)
Language : English
Default : Yes
Forced : No
Color range : Limited
Color primaries : BT.709
Transfer characteristics : BT.709
Matrix coefficients : BT.709

Audio #1
ID : 2
Format : AC-3
Format/Info : Audio Coding 3
Format settings, Endianness : Big
Codec ID : A_AC3
Duration : 55 min 58 s
Bit rate mode : Constant
Bit rate : 384 kb/s
Channel(s) : 6 channels
Channel positions : Front: L C R, Side: L R, LFE
Sampling rate : 48.0 kHz
Frame rate : 31.250 FPS (1536 spf)
Bit depth : 16 bits
Compression mode : Lossy
Stream size : 154 MiB (4%)
Title : NewStudio
Language : Russian
Service kind : Complete Main
Default : Yes
Forced : No

Audio #2
ID : 3
Format : E-AC-3
Format/Info : Enhanced Audio Coding 3
Format settings, Endianness : Big
Codec ID : A_EAC3
Duration : 55 min 58 s
Bit rate mode : Constant
Bit rate : 640 kb/s
Channel(s) : 6 channels
Channel positions : Front: L C R, Side: L R, LFE
Sampling rate : 48.0 kHz
Frame rate : 187.500 FPS (256 spf)
Compression mode : Lossy
Stream size : 256 MiB (7%)
Language : English
Service kind : Complete Main
Default : No
Forced : No

Text #1
ID : 4
Format : ASS
Codec ID : S_TEXT/ASS
Codec ID/Info : Advanced Sub Station Alpha
Duration : 44 min 57 s
Bit rate : 3 b/s
Count of elements : 17
Compression mode : Lossless
Stream size : 1.04 KiB (0%)
Title : Forced
Language : Russian
Default : Yes
Forced : Yes

Text #2
ID : 5
Format : UTF-8
Codec ID : S_TEXT/UTF8
Codec ID/Info : UTF-8 Plain Text
Duration : 54 min 58 s
Bit rate : 74 b/s
Count of elements : 648
Stream size : 30.2 KiB (0%)
Title : Full
Language : Russian
Default : No
Forced : No

скриншот  скриншот  скриншот  

Внимание! Раздача ведётся путём добавления новых серий; при каждом добавлении создаётся новый торрент. Чтобы начать докачку новой серии, пользователям необходимо сделать следующее:
(1) остановить скачивание,
(2) удалить старый торрент у себя из клиента (старые серии удалять не надо),
(3) скачать новый торрент и запустить его у себя в клиенте вместо старого, при этом указать клиенту путь в старую папку куда и должно происходить скачивание новых серий.
Ваш клиент при этом должен произвести хеширование (проверку) старой папки (если не производит сам - помогите ему сделать это), и будет докачивать только те серии которых у вас ещё нет. Старые серии при этом не удаляются, а продолжают раздаваться!
Eсли вы уже удалили старые серии, то предотвратить повторную закачку старых серий можно, отжав галочку в соответствующих местах при запуске нового торрента. По возможности, желательно не удалять старые серии как можно дольше чтобы релизёр не столько продолжал раздавать старые серии, а смог сконцентрироваться на новых.
pb.wtf



Скачать Маленькая барабанщица через торрент http://i97.fastpic.ru/big/2018/1110/3a/53503624dd03d793f4c1d84f28e2013a.jpg Скачать фильм Маленькая барабанщица через торрент бесплантно в хорошем качестве Описание: Будучи на отдыхе в Греции, молодая актриса Чарли знакомится с Беккером. Довольно скоро выясняется, что мужчиной движет не ... 10 10 1
Info! Серебряная раздача, засчитывается только 50% скачанного.
Торрент: Зарегистрирован [2018-12-11 10:15] · скачан: 20 раз
Статус: √ проверено
Размер: 25.94 GB
Как cкачать? Как скачать Маленькая барабанщица через торрент | qTorrent

% Раздел Тема Автор DL S | L
Зарубежные сериалы [ 27.71 GB ] Маленькая барабанщица / The Little Drummer Girl / Сезон: 1 / Серии 1-6 из 6 [2018 WEB-DL 1080p] [DVO] killermax2013 Скачать
1 | 0
Видео для КПК и Смартфонов [ 1.28 GB ] Маленькая барабанщица / The Little Drummer Girl / Сезон: 1 / Серии 1-6 из 6 [2018 WEB-DLRip КПК] MVO [LostFilm] sergey82 Скачать
1 | 0
Зарубежные сериалы [ 5.73 GB ] Маленькая барабанщица / The Little Drummer Girl / Сезон: 1 / Серии 1-6 из 6 [2018 WEB-DLRip] [MVO] killermax2013 Скачать
1 | 0
Зарубежные сериалы [ 25.94 GB ] Маленькая барабанщица / The Little Drummer Girl / Сезон: 1 / Серии 1-6 из 6 [2018 WEB-DL 1080p] [MVO] killermax2013 Скачать
2 | 0
Зарубежные сериалы [ 8.97 GB ] Маленькая барабанщица / The Little Drummer Girl / Сезон: 1 / Серии 1-6 из 6 [2018 WEB-DL 720p] [DVO] killermax2013 Скачать
1 | 0
Зарубежные сериалы [ 4.26 GB ] Маленькая барабанщица / The Little Drummer Girl / Сезон: 1 / Серии 1-6 из 6 [2018 WEB-DLRip] [MVO] killermax2013 Скачать
1 | 0
Зарубежные сериалы [ 7.14 GB ] Маленькая барабанщица / The Little Drummer Girl / Сезон: 1 / Серии 1-6 из 6 [2018 WEB-DLRip 720p] [MVO] killermax2013 Скачать
1 | 0


>> Регистрируемся здесь <<






Отзывы и комментарии о схеме читаем и пишем здесь: ---> Отзывы и комментарии о схеме

Новые благодарочки в телеграм довольных пользователей:
скриншот   скриншот   скриншот   скриншот   скриншот
    Дорогой пользователь! Огромная просьба, поблагодарите релизера, оцените раздачу и оставьте свои комментарий, если Вы скачали Маленькая барабанщица через торрент бесплатно! Внесите свою лепту в развитие PiratBit!
    Комментировать посты могут только пользователи прошедшие не сложную регистрацию
    Показать сообщения:    

    Маленькая барабанщица через торрент
    Скачать бесплатно Маленькая барабанщица
    Маленькая барабанщица скачать торрент
    Маленькая барабанщица смотреть онлайн
    Cкачать фильм Маленькая барабанщица бесплатно
    Маленькая барабанщица скачать торрент в хорошем качестве
    Маленькая барабанщица смотреть онлайн бесплатно в хорошем качестве


    Вы не можете начинать темы
    Вы не можете отвечать на сообщения
    Вы не можете редактировать свои сообщения
    Вы не можете удалять свои сообщения
    Вы не можете голосовать в опросах
    Вы не можете прикреплять файлы к сообщениям
    Вы можете скачивать файлы